  0
SECTION
  2
HEADER
  9
$ACADVER
  1
AC1015
  9
$ACADMAINTVER
 70
     6
  9
$DWGCODEPAGE
  3
ANSI_1252
  9
$INSBASE
 10
0.0
 20
0.0
 30
0.0
  9
$EXTMIN
 10
0.0
 20
0.0
 30
0.0
  9
$EXTMAX
 10
297.0
 20
210.0
 30
0.0
  9
$LIMMIN
 10
0.0
 20
0.0
  9
$LIMMAX
 10
297.0
 20
210.0
  9
$ORTHOMODE
 70
     0
  9
$REGENMODE
 70
     1
  9
$FILLMODE
 70
     1
  9
$QTEXTMODE
 70
     0
  9
$MIRRTEXT
 70
     1
  9
$LTSCALE
 40
1.0
  9
$ATTMODE
 70
     1
  9
$TEXTSIZE
 40
2.5
  9
$TRACEWID
 40
1.0
  9
$TEXTSTYLE
  7
Standard
  9
$CLAYER
  8
0
  9
$CELTYPE
  6
ByLayer
  9
$CECOLOR
 62
   256
  9
$CELTSCALE
 40
1.0
  9
$DISPSILH
 70
     0
  9
$DIMSCALE
 40
1.0
  9
$DIMASZ
 40
2.5
  9
$DIMEXO
 40
0.625
  9
$DIMDLI
 40
3.75
  9
$DIMRND
 40
0.0
  9
$DIMDLE
 40
0.0
  9
$DIMEXE
 40
1.25
  9
$DIMTP
 40
0.0
  9
$DIMTM
 40
0.0
  9
$DIMTXT
 40
2.5
  9
$DIMCEN
 40
2.5
  9
$DIMTSZ
 40
0.0
  9
$DIMTOL
 70
     0
  9
$DIMLIM
 70
     0
  9
$DIMTIH
 70
     0
  9
$DIMTOH
 70
     0
  9
$DIMSE1
 70
     0
  9
$DIMSE2
 70
     0
  9
$DIMTAD
 70
     1
  9
$DIMZIN
 70
     8
  9
$DIMBLK
  1

  9
$DIMASO
 70
     1
  9
$DIMSHO
 70
     1
  9
$DIMPOST
  1

  9
$DIMAPOST
  1

  9
$DIMALT
 70
     0
  9
$DIMALTD
 70
     3
  9
$DIMALTF
 40
0.0393700787
  9
$DIMLFAC
 40
1.0
  9
$DIMTOFL
 70
     1
  9
$DIMTVP
 40
0.0
  9
$DIMTIX
 70
     0
  9
$DIMSOXD
 70
     0
  9
$DIMSAH
 70
     0
  9
$DIMBLK1
  1

  9
$DIMBLK2
  1

  9
$DIMSTYLE
  2
ISO-25
  9
$DIMCLRD
 70
     0
  9
$DIMCLRE
 70
     0
  9
$DIMCLRT
 70
     0
  9
$DIMTFAC
 40
1.0
  9
$DIMGAP
 40
0.625
  9
$DIMJUST
 70
     0
  9
$DIMSD1
 70
     0
  9
$DIMSD2
 70
     0
  9
$DIMTOLJ
 70
     0
  9
$DIMTZIN
 70
     8
  9
$DIMALTZ
 70
     0
  9
$DIMALTTZ
 70
     0
  9
$DIMUPT
 70
     0
  9
$DIMDEC
 70
     2
  9
$DIMTDEC
 70
     2
  9
$DIMALTU
 70
     2
  9
$DIMALTTD
 70
     3
  9
$DIMTXSTY
  7
Standard
  9
$DIMAUNIT
 70
     0
  9
$DIMADEC
 70
     0
  9
$DIMALTRND
 40
0.0
  9
$DIMAZIN
 70
     0
  9
$DIMDSEP
 70
    44
  9
$DIMATFIT
 70
     3
  9
$DIMFRAC
 70
     0
  9
$DIMLDRBLK
  1

  9
$DIMLUNIT
 70
     2
  9
$DIMLWD
 70
    -2
  9
$DIMLWE
 70
    -2
  9
$DIMTMOVE
 70
     0
  9
$LUNITS
 70
     2
  9
$LUPREC
 70
     4
  9
$SKETCHINC
 40
1.0
  9
$FILLETRAD
 40
10.0
  9
$AUNITS
 70
     0
  9
$AUPREC
 70
     0
  9
$MENU
  1
.
  9
$ELEVATION
 40
0.0
  9
$PELEVATION
 40
0.0
  9
$THICKNESS
 40
0.0
  9
$LIMCHECK
 70
     0
  9
$CHAMFERA
 40
10.0
  9
$CHAMFERB
 40
10.0
  9
$CHAMFERC
 40
20.0
  9
$CHAMFERD
 40
0.0
  9
$SKPOLY
 70
     0
  9
$TDCREATE
 40
2456344.52637735
  9
$TDUCREATE
 40
2456344.484710683
  9
$TDUPDATE
 40
2456344.526377361
  9
$TDUUPDATE
 40
2456344.484710694
  9
$TDINDWG
 40
0.0000000116
  9
$TDUSRTIMER
 40
0.0000000116
  9
$USRTIMER
 70
     1
  9
$ANGBASE
 50
0.0
  9
$ANGDIR
 70
     0
  9
$PDMODE
 70
     0
  9
$PDSIZE
 40
0.0
  9
$PLINEWID
 40
0.0
  9
$SPLFRAME
 70
     0
  9
$SPLINETYPE
 70
     6
  9
$SPLINESEGS
 70
     8
  9
$HANDSEED
  5
259
  9
$SURFTAB1
 70
     6
  9
$SURFTAB2
 70
     6
  9
$SURFTYPE
 70
     6
  9
$SURFU
 70
     6
  9
$SURFV
 70
     6
  9
$UCSBASE
  2

  9
$UCSNAME
  2

  9
$UCSORG
 10
0.0
 20
0.0
 30
0.0
  9
$UCSXDIR
 10
1.0
 20
0.0
 30
0.0
  9
$UCSYDIR
 10
0.0
 20
1.0
 30
0.0
  9
$UCSORTHOREF
  2

  9
$UCSORTHOVIEW
 70
     0
  9
$UCSORGTOP
 10
0.0
 20
0.0
 30
0.0
  9
$UCSORGBOTTOM
 10
0.0
 20
0.0
 30
0.0
  9
$UCSORGLEFT
 10
0.0
 20
0.0
 30
0.0
  9
$UCSORGRIGHT
 10
0.0
 20
0.0
 30
0.0
  9
$UCSORGFRONT
 10
0.0
 20
0.0
 30
0.0
  9
$UCSORGBACK
 10
0.0
 20
0.0
 30
0.0
  9
$PUCSBASE
  2

  9
$PUCSNAME
  2

  9
$PUCSORG
 10
0.0
 20
0.0
 30
0.0
  9
$PUCSXDIR
 10
1.0
 20
0.0
 30
0.0
  9
$PUCSYDIR
 10
0.0
 20
1.0
 30
0.0
  9
$PUCSORTHOREF
  2

  9
$PUCSORTHOVIEW
 70
     0
  9
$PUCSORGTOP
 10
0.0
 20
0.0
 30
0.0
  9
$PUCSORGBOTTOM
 10
0.0
 20
0.0
 30
0.0
  9
$PUCSORGLEFT
 10
0.0
 20
0.0
 30
0.0
  9
$PUCSORGRIGHT
 10
0.0
 20
0.0
 30
0.0
  9
$PUCSORGFRONT
 10
0.0
 20
0.0
 30
0.0
  9
$PUCSORGBACK
 10
0.0
 20
0.0
 30
0.0
  9
$USERI1
 70
     0
  9
$USERI2
 70
     0
  9
$USERI3
 70
     0
  9
$USERI4
 70
     0
  9
$USERI5
 70
     0
  9
$USERR1
 40
0.0
  9
$USERR2
 40
0.0
  9
$USERR3
 40
0.0
  9
$USERR4
 40
0.0
  9
$USERR5
 40
0.0
  9
$WORLDVIEW
 70
     1
  9
$SHADEDGE
 70
     3
  9
$SHADEDIF
 70
    70
  9
$TILEMODE
 70
     1
  9
$MAXACTVP
 70
    64
  9
$PINSBASE
 10
0.0
 20
0.0
 30
0.0
  9
$PLIMCHECK
 70
     0
  9
$PEXTMIN
 10
0.0
 20
0.0
 30
0.0
  9
$PEXTMAX
 10
297.0
 20
210.0
 30
0.0
  9
$PLIMMIN
 10
0.0
 20
0.0
  9
$PLIMMAX
 10
297.0
 20
210.0
  9
$UNITMODE
 70
     0
  9
$VISRETAIN
 70
     1
  9
$PLINEGEN
 70
     0
  9
$PSLTSCALE
 70
     1
  9
$TREEDEPTH
 70
  3020
  9
$CMLSTYLE
  2
Standard
  9
$CMLJUST
 70
     0
  9
$CMLSCALE
 40
20.0
  9
$PROXYGRAPHICS
 70
     1
  9
$MEASUREMENT
 70
     1
  9
$CELWEIGHT
370
    -1
  9
$ENDCAPS
280
     0
  9
$JOINSTYLE
280
     0
  9
$LWDISPLAY
290
     0
  9
$INSUNITS
 70
     4
  9
$HYPERLINKBASE
  1

  9
$STYLESHEET
  1

  9
$XEDIT
290
     1
  9
$CEPSNTYPE
380
     0
  9
$PSTYLEMODE
290
     1
  9
$FINGERPRINTGUID
  2
{410BB141-88CC-4435-9300-A07B589EE797}
  9
$VERSIONGUID
  2
{FAEB1C32-E019-11D5-929B-00C0DF256EC4}
  9
$EXTNAMES
290
     1
  9
$PSVPSCALE
 40
0.0
  9
$OLESTARTUP
290
     0
  0
ENDSEC
  0
SECTION
  2
CLASSES
  0
CLASS
  1
ACDBDICTIONARYWDFLT
  2
AcDbDictionaryWithDefault
  3
ObjectDBX Classes
 90
        0
280
     0
281
     0
  0
CLASS
  1
ACDBPLACEHOLDER
  2
AcDbPlaceHolder
  3
ObjectDBX Classes
 90
        0
280
     0
281
     0
  0
CLASS
  1
LAYOUT
  2
AcDbLayout
  3
ObjectDBX Classes
 90
        0
280
     0
281
     0
  0
ENDSEC
  0
SECTION
  2
TABLES
  0
TABLE
  2
VPORT
  5
8
330
0
100
AcDbSymbolTable
 70
     1
  0
VPORT
  5
29
330
8
100
AcDbSymbolTableRecord
100
AcDbViewportTableRecord
  2
*Active
 70
     0
 10
0.0
 20
0.0
 11
1.0
 21
1.0
 12
344.1869158879
 22
148.5
 13
0.0
 23
0.0
 14
10.0
 24
10.0
 15
10.0
 25
10.0
 16
0.0
 26
0.0
 36
1.0
 17
0.0
 27
0.0
 37
0.0
 40
297.0
 41
1.9729729729
 42
50.0
 43
0.0
 44
0.0
 50
0.0
 51
0.0
 71
     0
 72
   100
 73
     1
 74
     3
 75
     0
 76
     0
 77
     0
 78
     0
281
     0
 65
     1
110
0.0
120
0.0
130
0.0
111
1.0
121
0.0
131
0.0
112
0.0
122
1.0
132
0.0
 79
     0
146
0.0
  0
ENDTAB
  0
TABLE
  2
LTYPE
  5
5
330
0
100
AcDbSymbolTable
 70
     3
  0
LTYPE
  5
14
330
5
100
AcDbSymbolTableRecord
100
AcDbLinetypeTableRecord
  2
ByBlock
 70
     0
  3

 72
    65
 73
     0
 40
0.0
  0
LTYPE
  5
15
330
5
100
AcDbSymbolTableRecord
100
AcDbLinetypeTableRecord
  2
ByLayer
 70
     0
  3

 72
    65
 73
     0
 40
0.0
  0
LTYPE
  5
16
330
5
100
AcDbSymbolTableRecord
100
AcDbLinetypeTableRecord
  2
Continuous
 70
     0
  3
Solid line
 72
    65
 73
     0
 40
0.0
  0
LTYPE
  5
39
330
5
100
AcDbSymbolTableRecord
100
AcDbLinetypeTableRecord
  2
CENTER2
 70
     0
  3
Center (.5x) ___ _ ___ _ ___ _ ___ _ ___ _ ___
 72
    65
 73
     4
 40
28.575
 49
19.05
 74
     4
 75
     0
340
0
 46
0.0
 50
0.0
 44
0.0
 45
0.0
 49
-3.175
 74
     4
 75
     0
340
0
 46
0.0
 50
0.0
 44
0.0
 45
0.0
 49
3.175
 74
     4
 75
     0
340
0
 46
0.0
 50
0.0
 44
0.0
 45
0.0
 49
-3.175
 74
     4
 75
     0
340
0
 46
0.0
 50
0.0
 44
0.0
 45
0.0
  0
LTYPE
  5
86
330
5
100
AcDbSymbolTableRecord
100
AcDbLinetypeTableRecord
  2
HIDDEN2
 70
     0
  3
Hidden (.5x) _ _ _ _ _ _ _ _ _ _ _ _ _ _ _ _ _ 
 72
    65
 73
     2
 40
4.7625
 49
3.175
 74
     4
 75
     0
340
0
 46
0.0
 50
0.0
 44
0.0
 45
0.0
 49
-1.5875
 74
     4
 75
     0
340
0
 46
0.0
 50
0.0
 44
0.0
 45
0.0
  0
ENDTAB
  0
TABLE
  2
LAYER
  5
2
330
0
100
AcDbSymbolTable
 70
     5
  0
LAYER
  5
10
330
2
100
AcDbSymbolTableRecord
100
AcDbLayerTableRecord
  2
0
 70
     0
 62
     7
  6
Continuous
370
    -3
390
F
  0
LAYER
  5
2C
330
2
100
AcDbSymbolTableRecord
100
AcDbLayerTableRecord
  2
Kontur
 70
     0
 62
     7
  6
Continuous
370
    -3
390
F
  0
LAYER
  5
84
330
2
100
AcDbSymbolTableRecord
100
AcDbLayerTableRecord
  2
GRUNDPLATTE
 70
     0
 62
     7
  6
Continuous
370
    -3
390
F
  0
LAYER
  5
223
330
2
100
AcDbSymbolTableRecord
100
AcDbLayerTableRecord
  2
Standard
 70
     0
 62
     7
  6
Continuous
370
    -3
390
F
  0
LAYER
  5
225
330
2
100
AcDbSymbolTableRecord
100
AcDbLayerTableRecord
  2
Rahmen
 70
     0
 62
     7
  6
Continuous
370
    -3
390
F
  0
ENDTAB
  0
TABLE
  2
STYLE
  5
3
330
0
100
AcDbSymbolTable
 70
     3
  0
STYLE
  5
11
330
3
100
AcDbSymbolTableRecord
100
AcDbTextStyleTableRecord
  2
Standard
 70
     0
 40
0.0
 41
1.0
 50
0.0
 71
     0
 42
2.5
  3
txt
  4

  0
STYLE
  5
2A
330
3
100
AcDbSymbolTableRecord
100
AcDbTextStyleTableRecord
  2
SEACAD_seiso_ttf
 70
     0
 40
0.0
 41
1.0
 50
0.0
 71
     0
 42
0.2
  3
seiso.ttf
  4

  0
STYLE
  5
1D7
330
3
100
AcDbSymbolTableRecord
100
AcDbTextStyleTableRecord
  2
SEACAD_semeci1_ttf
 70
     0
 40
0.0
 41
1.0
 50
0.0
 71
     0
 42
0.2
  3
semeci1.ttf
  4

  0
ENDTAB
  0
TABLE
  2
VIEW
  5
6
330
0
100
AcDbSymbolTable
 70
     0
  0
ENDTAB
  0
TABLE
  2
UCS
  5
7
330
0
100
AcDbSymbolTable
 70
     0
  0
ENDTAB
  0
TABLE
  2
APPID
  5
9
330
0
100
AcDbSymbolTable
 70
     1
  0
APPID
  5
12
330
9
100
AcDbSymbolTableRecord
100
AcDbRegAppTableRecord
  2
ACAD
 70
     0
  0
ENDTAB
  0
TABLE
  2
DIMSTYLE
  5
A
330
0
100
AcDbSymbolTable
 70
     3
100
AcDbDimStyleTable
  0
DIMSTYLE
105
27
330
A
100
AcDbSymbolTableRecord
100
AcDbDimStyleTableRecord
  2
ISO-25
 70
     0
 41
2.5
 42
0.625
 43
3.75
 44
1.25
 73
     0
 74
     0
 77
     1
 78
     8
140
2.5
141
2.5
143
0.0393700787
147
0.625
171
     3
172
     1
271
     2
272
     2
274
     3
278
    44
283
     0
284
     8
340
11
  0
DIMSTYLE
105
A8
330
A
100
AcDbSymbolTableRecord
100
AcDbDimStyleTableRecord
  2
Standard
 70
     0
340
11
  0
DIMSTYLE
105
B7
102
{ACAD_REACTORS
330
B8
330
C2
330
CC
330
D6
330
E0
330
EA
330
F4
330
FF
330
109
330
113
330
169
330
174
330
17E
330
188
330
192
330
19C
330
1D6
330
1E2
330
1ED
330
1F8
330
203
330
20D
330
218
102
}
330
A
100
AcDbSymbolTableRecord
100
AcDbDimStyleTableRecord
  2
BSZ-Bemaßung
 70
     0
 41
3.5
 42
0.0
 44
1.75
 73
     0
 74
     0
 77
     1
 78
     8
140
3.5
141
1.75
147
0.7
172
     1
173
     1
176
   136
177
   136
178
   136
179
     2
271
     2
272
     2
278
    44
284
     8
340
2A
343
B2
344
B2
  0
ENDTAB
  0
TABLE
  2
BLOCK_RECORD
  5
1
330
0
100
AcDbSymbolTable
 70
    42
  0
BLOCK_RECORD
  5
1F
330
1
100
AcDbSymbolTableRecord
100
AcDbBlockTableRecord
  2
*Model_Space
340
22
  0
BLOCK_RECORD
  5
1B
330
1
100
AcDbSymbolTableRecord
100
AcDbBlockTableRecord
  2
*Paper_Space
340
1E
  0
BLOCK_RECORD
  5
37
330
1
100
AcDbSymbolTableRecord
100
AcDbBlockTableRecord
  2
SEANNOT_GROUP
340
0
102
{BLKREFS
331
38
102
}
1001
ACAD
1000
DesignCenter Data
1002
{
1070
     1
1070
     0
1002
}
  0
BLOCK_RECORD
  5
42
330
1
100
AcDbSymbolTableRecord
100
AcDbBlockTableRecord
  2
SEANNOT_GROUP1
340
0
102
{BLKREFS
331
43
102
}
1001
ACAD
1000
DesignCenter Data
1002
{
1070
     1
1070
     0
1002
}
  0
BLOCK_RECORD
  5
4C
330
1
100
AcDbSymbolTableRecord
100
AcDbBlockTableRecord
  2
SEANNOT_GROUP2
340
0
102
{BLKREFS
331
4D
102
}
1001
ACAD
1000
DesignCenter Data
1002
{
1070
     1
1070
     0
1002
}
  0
BLOCK_RECORD
  5
56
330
1
100
AcDbSymbolTableRecord
100
AcDbBlockTableRecord
  2
SEANNOT_GROUP3
340
0
102
{BLKREFS
331
57
102
}
1001
ACAD
1000
DesignCenter Data
1002
{
1070
     1
1070
     0
1002
}
  0
BLOCK_RECORD
  5
60
330
1
100
AcDbSymbolTableRecord
100
AcDbBlockTableRecord
  2
SEANNOT_GROUP4
340
0
102
{BLKREFS
331
61
102
}
1001
ACAD
1000
DesignCenter Data
1002
{
1070
     1
1070
     0
1002
}
  0
BLOCK_RECORD
  5
6A
330
1
100
AcDbSymbolTableRecord
100
AcDbBlockTableRecord
  2
SEANNOT_GROUP5
340
0
102
{BLKREFS
331
6B
102
}
1001
ACAD
1000
DesignCenter Data
1002
{
1070
     1
1070
     0
1002
}
  0
BLOCK_RECORD
  5
74
330
1
100
AcDbSymbolTableRecord
100
AcDbBlockTableRecord
  2
SEANNOT_GROUP6
340
0
102
{BLKREFS
331
75
102
}
1001
ACAD
1000
DesignCenter Data
1002
{
1070
     1
1070
     0
1002
}
  0
BLOCK_RECORD
  5
82
330
1
100
AcDbSymbolTableRecord
100
AcDbBlockTableRecord
  2
SE
340
0
102
{BLKREFS
331
83
102
}
1001
ACAD
1000
DesignCenter Data
1002
{
1070
     1
1070
     0
1002
}
  0
BLOCK_RECORD
  5
A9
330
1
100
AcDbSymbolTableRecord
100
AcDbBlockTableRecord
  2
_Oblique
340
0
1001
ACAD
1000
DesignCenter Data
1002
{
1070
     1
1070
     0
1002
}
  0
BLOCK_RECORD
  5
AD
330
1
100
AcDbSymbolTableRecord
100
AcDbBlockTableRecord
  2
_Dot
340
0
1001
ACAD
1000
DesignCenter Data
1002
{
1070
     1
1070
     0
1002
}
  0
BLOCK_RECORD
  5
B2
330
1
100
AcDbSymbolTableRecord
100
AcDbBlockTableRecord
  2
_SE_FILLED
340
0
1001
ACAD
1000
DesignCenter Data
1002
{
1070
     1
1070
     0
1002
}
  0
BLOCK_RECORD
  5
B9
330
1
100
AcDbSymbolTableRecord
100
AcDbBlockTableRecord
  2
DMBLK1
340
0
1001
ACAD
1000
DesignCenter Data
1002
{
1070
     1
1070
     0
1002
}
  0
BLOCK_RECORD
  5
C3
330
1
100
AcDbSymbolTableRecord
100
AcDbBlockTableRecord
  2
DMBLK2
340
0
1001
ACAD
1000
DesignCenter Data
1002
{
1070
     1
1070
     0
1002
}
  0
BLOCK_RECORD
  5
CD
330
1
100
AcDbSymbolTableRecord
100
AcDbBlockTableRecord
  2
DMBLK3
340
0
1001
ACAD
1000
DesignCenter Data
1002
{
1070
     1
1070
     0
1002
}
  0
BLOCK_RECORD
  5
D7
330
1
100
AcDbSymbolTableRecord
100
AcDbBlockTableRecord
  2
DMBLK4
340
0
1001
ACAD
1000
DesignCenter Data
1002
{
1070
     1
1070
     0
1002
}
  0
BLOCK_RECORD
  5
E1
330
1
100
AcDbSymbolTableRecord
100
AcDbBlockTableRecord
  2
DMBLK5
340
0
1001
ACAD
1000
DesignCenter Data
1002
{
1070
     1
1070
     0
1002
}
  0
BLOCK_RECORD
  5
EB
330
1
100
AcDbSymbolTableRecord
100
AcDbBlockTableRecord
  2
DMBLK6
340
0
1001
ACAD
1000
DesignCenter Data
1002
{
1070
     1
1070
     0
1002
}
  0
BLOCK_RECORD
  5
F5
330
1
100
AcDbSymbolTableRecord
100
AcDbBlockTableRecord
  2
DMBLK7
340
0
1001
ACAD
1000
DesignCenter Data
1002
{
1070
     1
1070
     0
1002
}
  0
BLOCK_RECORD
  5
100
330
1
100
AcDbSymbolTableRecord
100
AcDbBlockTableRecord
  2
DMBLK8
340
0
1001
ACAD
1000
DesignCenter Data
1002
{
1070
     1
1070
     0
1002
}
  0
BLOCK_RECORD
  5
10A
330
1
100
AcDbSymbolTableRecord
100
AcDbBlockTableRecord
  2
DMBLK9
340
0
1001
ACAD
1000
DesignCenter Data
1002
{
1070
     1
1070
     0
1002
}
  0
BLOCK_RECORD
  5
114
330
1
100
AcDbSymbolTableRecord
100
AcDbBlockTableRecord
  2
DMBLK10
340
0
1001
ACAD
1000
DesignCenter Data
1002
{
1070
     1
1070
     0
1002
}
  0
BLOCK_RECORD
  5
11D
330
1
100
AcDbSymbolTableRecord
100
AcDbBlockTableRecord
  2
SE1
340
0
102
{BLKREFS
331
11E
102
}
1001
ACAD
1000
DesignCenter Data
1002
{
1070
     1
1070
     0
1002
}
  0
BLOCK_RECORD
  5
11F
330
1
100
AcDbSymbolTableRecord
100
AcDbBlockTableRecord
  2
SE2
340
0
102
{BLKREFS
331
120
102
}
1001
ACAD
1000
DesignCenter Data
1002
{
1070
     1
1070
     0
1002
}
  0
BLOCK_RECORD
  5
124
330
1
100
AcDbSymbolTableRecord
100
AcDbBlockTableRecord
  2
SE3
340
0
102
{BLKREFS
331
125
102
}
1001
ACAD
1000
DesignCenter Data
1002
{
1070
     1
1070
     0
1002
}
  0
BLOCK_RECORD
  5
129
330
1
100
AcDbSymbolTableRecord
100
AcDbBlockTableRecord
  2
SE4
340
0
102
{BLKREFS
331
12A
102
}
1001
ACAD
1000
DesignCenter Data
1002
{
1070
     1
1070
     0
1002
}
  0
BLOCK_RECORD
  5
12F
330
1
100
AcDbSymbolTableRecord
100
AcDbBlockTableRecord
  2
SE5
340
0
102
{BLKREFS
331
130
102
}
1001
ACAD
1000
DesignCenter Data
1002
{
1070
     1
1070
     0
1002
}
  0
BLOCK_RECORD
  5
13A
330
1
100
AcDbSymbolTableRecord
100
AcDbBlockTableRecord
  2
SE6
340
0
102
{BLKREFS
331
13B
102
}
1001
ACAD
1000
DesignCenter Data
1002
{
1070
     1
1070
     0
1002
}
  0
BLOCK_RECORD
  5
16A
330
1
100
AcDbSymbolTableRecord
100
AcDbBlockTableRecord
  2
DMBLK11
340
0
1001
ACAD
1000
DesignCenter Data
1002
{
1070
     1
1070
     0
1002
}
  0
BLOCK_RECORD
  5
175
330
1
100
AcDbSymbolTableRecord
100
AcDbBlockTableRecord
  2
DMBLK12
340
0
1001
ACAD
1000
DesignCenter Data
1002
{
1070
     1
1070
     0
1002
}
  0
BLOCK_RECORD
  5
17F
330
1
100
AcDbSymbolTableRecord
100
AcDbBlockTableRecord
  2
DMBLK13
340
0
1001
ACAD
1000
DesignCenter Data
1002
{
1070
     1
1070
     0
1002
}
  0
BLOCK_RECORD
  5
189
330
1
100
AcDbSymbolTableRecord
100
AcDbBlockTableRecord
  2
DMBLK14
340
0
1001
ACAD
1000
DesignCenter Data
1002
{
1070
     1
1070
     0
1002
}
  0
BLOCK_RECORD
  5
193
330
1
100
AcDbSymbolTableRecord
100
AcDbBlockTableRecord
  2
DMBLK15
340
0
1001
ACAD
1000
DesignCenter Data
1002
{
1070
     1
1070
     0
1002
}
  0
BLOCK_RECORD
  5
19D
330
1
100
AcDbSymbolTableRecord
100
AcDbBlockTableRecord
  2
DMBLK16
340
0
1001
ACAD
1000
DesignCenter Data
1002
{
1070
     1
1070
     0
1002
}
  0
BLOCK_RECORD
  5
1A7
330
1
100
AcDbSymbolTableRecord
100
AcDbBlockTableRecord
  2
SE7
340
0
102
{BLKREFS
331
1A8
102
}
1001
ACAD
1000
DesignCenter Data
1002
{
1070
     1
1070
     0
1002
}
  0
BLOCK_RECORD
  5
1D8
330
1
100
AcDbSymbolTableRecord
100
AcDbBlockTableRecord
  2
DMBLK17
340
0
1001
ACAD
1000
DesignCenter Data
1002
{
1070
     1
1070
     0
1002
}
  0
BLOCK_RECORD
  5
1E3
330
1
100
AcDbSymbolTableRecord
100
AcDbBlockTableRecord
  2
DMBLK18
340
0
1001
ACAD
1000
DesignCenter Data
1002
{
1070
     1
1070
     0
1002
}
  0
BLOCK_RECORD
  5
1EE
330
1
100
AcDbSymbolTableRecord
100
AcDbBlockTableRecord
  2
DMBLK19
340
0
1001
ACAD
1000
DesignCenter Data
1002
{
1070
     1
1070
     0
1002
}
  0
BLOCK_RECORD
  5
1F9
330
1
100
AcDbSymbolTableRecord
100
AcDbBlockTableRecord
  2
DMBLK20
340
0
1001
ACAD
1000
DesignCenter Data
1002
{
1070
     1
1070
     0
1002
}
  0
BLOCK_RECORD
  5
204
330
1
100
AcDbSymbolTableRecord
100
AcDbBlockTableRecord
  2
DMBLK21
340
0
1001
ACAD
1000
DesignCenter Data
1002
{
1070
     1
1070
     0
1002
}
  0
BLOCK_RECORD
  5
20E
330
1
100
AcDbSymbolTableRecord
100
AcDbBlockTableRecord
  2
DMBLK22
340
0
1001
ACAD
1000
DesignCenter Data
1002
{
1070
     1
1070
     0
1002
}
  0
BLOCK_RECORD
  5
219
330
1
100
AcDbSymbolTableRecord
100
AcDbBlockTableRecord
  2
DMBLK23
340
0
1001
ACAD
1000
DesignCenter Data
1002
{
1070
     1
1070
     0
1002
}
  0
ENDTAB
  0
ENDSEC
  0
SECTION
  2
BLOCKS
  0
BLOCK
  5
20
330
1F
100
AcDbEntity
  8
0
100
AcDbBlockBegin
  2
*Model_Space
 70
     0
 71
     0
 10
0.0
 20
0.0
 30
0.0
  3
*Model_Space
  1

  0
ENDBLK
  5
21
330
1F
100
AcDbEntity
  8
0
100
AcDbBlockEnd
  0
BLOCK
  5
1C
330
1B
100
AcDbEntity
 67
     1
  8
0
100
AcDbBlockBegin
  2
*Paper_Space
 70
     0
 71
     0
 10
0.0
 20
0.0
 30
0.0
  3
*Paper_Space
  1

  0
ENDBLK
  5
1D
330
1B
100
AcDbEntity
 67
     1
  8
0
100
AcDbBlockEnd
  0
BLOCK
  5
40
330
37
100
AcDbEntity
  8
0
100
AcDbBlockBegin
  2
SEANNOT_GROUP
 70
     0
 71
     0
 10
0.0
 20
0.0
 30
0.0
  3
SEANNOT_GROUP
  1

  0
LINE
  5
3A
330
37
100
AcDbEntity
  8
Kontur
  6
CENTER2
 62
   136
370
    20
100
AcDbLine
 10
59.6312638774
 20
153.36456684
 30
0.0
 11
56.1312637694
 21
153.36456684
 31
0.0
  0
LINE
  5
3B
330
37
100
AcDbEntity
  8
Kontur
  6
CENTER2
 62
   136
370
    20
100
AcDbLine
 10
57.8812638234
 20
155.114566894
 30
0.0
 11
57.8812638234
 21
151.614566786
 31
0.0
  0
LINE
  5
3C
330
37
100
AcDbEntity
  8
Kontur
  6
CENTER2
 62
   136
370
    20
100
AcDbLine
 10
61.3812639314
 20
153.36456684
 30
0.0
 11
62.3812638234
 21
153.36456684
 31
0.0
  0
LINE
  5
3D
330
37
100
AcDbEntity
  8
Kontur
  6
CENTER2
 62
   136
370
    20
100
AcDbLine
 10
57.8812638234
 20
156.864566948
 30
0.0
 11
57.8812638234
 21
157.86456684
 31
0.0
  0
LINE
  5
3E
330
37
100
AcDbEntity
  8
Kontur
  6
CENTER2
 62
   136
370
    20
100
AcDbLine
 10
54.3812637153
 20
153.36456684
 30
0.0
 11
53.3812638234
 21
153.36456684
 31
0.0
  0
LINE
  5
3F
330
37
100
AcDbEntity
  8
Kontur
  6
CENTER2
 62
   136
370
    20
100
AcDbLine
 10
57.8812638234
 20
149.864566732
 30
0.0
 11
57.8812638234
 21
148.86456684
 31
0.0
  0
ENDBLK
  5
41
330
37
100
AcDbEntity
  8
0
100
AcDbBlockEnd
  0
BLOCK
  5
4A
330
42
100
AcDbEntity
  8
0
100
AcDbBlockBegin
  2
SEANNOT_GROUP1
 70
     0
 71
     0
 10
0.0
 20
0.0
 30
0.0
  3
SEANNOT_GROUP1
  1

  0
LINE
  5
44
330
42
100
AcDbEntity
  8
Kontur
  6
CENTER2
 62
   136
370
    20
100
AcDbLine
 10
61.6312638774
 20
131.36456684
 30
0.0
 11
58.1312637694
 21
131.36456684
 31
0.0
  0
LINE
  5
45
330
42
100
AcDbEntity
  8
Kontur
  6
CENTER2
 62
   136
370
    20
100
AcDbLine
 10
59.8812638234
 20
133.114566894
 30
0.0
 11
59.8812638234
 21
129.614566786
 31
0.0
  0
LINE
  5
46
330
42
100
AcDbEntity
  8
Kontur
  6
CENTER2
 62
   136
370
    20
100
AcDbLine
 10
63.3812639314
 20
131.36456684
 30
0.0
 11
66.6312638234
 21
131.36456684
 31
0.0
  0
LINE
  5
47
330
42
100
AcDbEntity
  8
Kontur
  6
CENTER2
 62
   136
370
    20
100
AcDbLine
 10
59.8812638234
 20
134.864566948
 30
0.0
 11
59.8812638234
 21
138.11456684
 31
0.0
  0
LINE
  5
48
330
42
100
AcDbEntity
  8
Kontur
  6
CENTER2
 62
   136
370
    20
100
AcDbLine
 10
56.3812637153
 20
131.36456684
 30
0.0
 11
53.1312638234
 21
131.36456684
 31
0.0
  0
LINE
  5
49
330
42
100
AcDbEntity
  8
Kontur
  6
CENTER2
 62
   136
370
    20
100
AcDbLine
 10
59.8812638234
 20
127.864566732
 30
0.0
 11
59.8812638234
 21
124.61456684
 31
0.0
  0
ENDBLK
  5
4B
330
42
100
AcDbEntity
  8
0
100
AcDbBlockEnd
  0
BLOCK
  5
54
330
4C
100
AcDbEntity
  8
0
100
AcDbBlockBegin
  2
SEANNOT_GROUP2
 70
     0
 71
     0
 10
0.0
 20
0.0
 30
0.0
  3
SEANNOT_GROUP2
  1

  0
LINE
  5
4E
330
4C
100
AcDbEntity
  8
Kontur
  6
CENTER2
 62
   136
370
    20
100
AcDbLine
 10
59.6312638774
 20
109.36456684
 30
0.0
 11
56.1312637694
 21
109.36456684
 31
0.0
  0
LINE
  5
4F
330
4C
100
AcDbEntity
  8
Kontur
  6
CENTER2
 62
   136
370
    20
100
AcDbLine
 10
57.8812638234
 20
111.114566894
 30
0.0
 11
57.8812638234
 21
107.614566786
 31
0.0
  0
LINE
  5
50
330
4C
100
AcDbEntity
  8
Kontur
  6
CENTER2
 62
   136
370
    20
100
AcDbLine
 10
61.3812639314
 20
109.36456684
 30
0.0
 11
62.3812638234
 21
109.36456684
 31
0.0
  0
LINE
  5
51
330
4C
100
AcDbEntity
  8
Kontur
  6
CENTER2
 62
   136
370
    20
100
AcDbLine
 10
57.8812638234
 20
112.864566948
 30
0.0
 11
57.8812638234
 21
113.86456684
 31
0.0
  0
LINE
  5
52
330
4C
100
AcDbEntity
  8
Kontur
  6
CENTER2
 62
   136
370
    20
100
AcDbLine
 10
54.3812637153
 20
109.36456684
 30
0.0
 11
53.3812638234
 21
109.36456684
 31
0.0
  0
LINE
  5
53
330
4C
100
AcDbEntity
  8
Kontur
  6
CENTER2
 62
   136
370
    20
100
AcDbLine
 10
57.8812638234
 20
105.864566732
 30
0.0
 11
57.8812638234
 21
104.86456684
 31
0.0
  0
ENDBLK
  5
55
330
4C
100
AcDbEntity
  8
0
100
AcDbBlockEnd
  0
BLOCK
  5
5E
330
56
100
AcDbEntity
  8
0
100
AcDbBlockBegin
  2
SEANNOT_GROUP3
 70
     0
 71
     0
 10
0.0
 20
0.0
 30
0.0
  3
SEANNOT_GROUP3
  1

  0
LINE
  5
58
330
56
100
AcDbEntity
  8
Kontur
  6
CENTER2
 62
   136
370
    20
100
AcDbLine
 10
101.6312638774
 20
131.36456684
 30
0.0
 11
98.1312637694
 21
131.36456684
 31
0.0
  0
LINE
  5
59
330
56
100
AcDbEntity
  8
Kontur
  6
CENTER2
 62
   136
370
    20
100
AcDbLine
 10
99.8812638234
 20
133.114566894
 30
0.0
 11
99.8812638234
 21
129.614566786
 31
0.0
  0
LINE
  5
5A
330
56
100
AcDbEntity
  8
Kontur
  6
CENTER2
 62
   136
370
    20
100
AcDbLine
 10
103.3812639314
 20
131.36456684
 30
0.0
 11
106.6312638234
 21
131.36456684
 31
0.0
  0
LINE
  5
5B
330
56
100
AcDbEntity
  8
Kontur
  6
CENTER2
 62
   136
370
    20
100
AcDbLine
 10
99.8812638234
 20
134.864566948
 30
0.0
 11
99.8812638234
 21
138.11456684
 31
0.0
  0
LINE
  5
5C
330
56
100
AcDbEntity
  8
Kontur
  6
CENTER2
 62
   136
370
    20
100
AcDbLine
 10
96.3812637153
 20
131.36456684
 30
0.0
 11
93.1312638234
 21
131.36456684
 31
0.0
  0
LINE
  5
5D
330
56
100
AcDbEntity
  8
Kontur
  6
CENTER2
 62
   136
370
    20
100
AcDbLine
 10
99.8812638234
 20
127.864566732
 30
0.0
 11
99.8812638234
 21
124.61456684
 31
0.0
  0
ENDBLK
  5
5F
330
56
100
AcDbEntity
  8
0
100
AcDbBlockEnd
  0
BLOCK
  5
68
330
60
100
AcDbEntity
  8
0
100
AcDbBlockBegin
  2
SEANNOT_GROUP4
 70
     0
 71
     0
 10
0.0
 20
0.0
 30
0.0
  3
SEANNOT_GROUP4
  1

  0
LINE
  5
62
330
60
100
AcDbEntity
  8
Kontur
  6
CENTER2
 62
   136
370
    20
100
AcDbLine
 10
173.6312638774
 20
153.36456684
 30
0.0
 11
170.1312637694
 21
153.36456684
 31
0.0
  0
LINE
  5
63
330
60
100
AcDbEntity
  8
Kontur
  6
CENTER2
 62
   136
370
    20
100
AcDbLine
 10
171.8812638234
 20
155.114566894
 30
0.0
 11
171.8812638234
 21
151.614566786
 31
0.0
  0
LINE
  5
64
330
60
100
AcDbEntity
  8
Kontur
  6
CENTER2
 62
   136
370
    20
100
AcDbLine
 10
175.3812639314
 20
153.36456684
 30
0.0
 11
176.3812638234
 21
153.36456684
 31
0.0
  0
LINE
  5
65
330
60
100
AcDbEntity
  8
Kontur
  6
CENTER2
 62
   136
370
    20
100
AcDbLine
 10
171.8812638234
 20
156.864566948
 30
0.0
 11
171.8812638234
 21
157.86456684
 31
0.0
  0
LINE
  5
66
330
60
100
AcDbEntity
  8
Kontur
  6
CENTER2
 62
   136
370
    20
100
AcDbLine
 10
168.3812637153
 20
153.36456684
 30
0.0
 11
167.3812638234
 21
153.36456684
 31
0.0
  0
LINE
  5
67
330
60
100
AcDbEntity
  8
Kontur
  6
CENTER2
 62
   136
370
    20
100
AcDbLine
 10
171.8812638234
 20
149.864566732
 30
0.0
 11
171.8812638234
 21
148.86456684
 31
0.0
  0
ENDBLK
  5
69
330
60
100
AcDbEntity
  8
0
100
AcDbBlockEnd
  0
BLOCK
  5
72
330
6A
100
AcDbEntity
  8
0
100
AcDbBlockBegin
  2
SEANNOT_GROUP5
 70
     0
 71
     0
 10
0.0
 20
0.0
 30
0.0
  3
SEANNOT_GROUP5
  1

  0
LINE
  5
6C
330
6A
100
AcDbEntity
  8
Kontur
  6
CENTER2
 62
   136
370
    20
100
AcDbLine
 10
173.6312638774
 20
109.36456684
 30
0.0
 11
170.1312637694
 21
109.36456684
 31
0.0
  0
LINE
  5
6D
330
6A
100
AcDbEntity
  8
Kontur
  6
CENTER2
 62
   136
370
    20
100
AcDbLine
 10
171.8812638234
 20
111.114566894
 30
0.0
 11
171.8812638234
 21
107.614566786
 31
0.0
  0
LINE
  5
6E
330
6A
100
AcDbEntity
  8
Kontur
  6
CENTER2
 62
   136
370
    20
100
AcDbLine
 10
175.3812639314
 20
109.36456684
 30
0.0
 11
178.6312638234
 21
109.36456684
 31
0.0
  0
LINE
  5
6F
330
6A
100
AcDbEntity
  8
Kontur
  6
CENTER2
 62
   136
370
    20
100
AcDbLine
 10
171.8812638234
 20
112.864566948
 30
0.0
 11
171.8812638234
 21
116.11456684
 31
0.0
  0
LINE
  5
70
330
6A
100
AcDbEntity
  8
Kontur
  6
CENTER2
 62
   136
370
    20
100
AcDbLine
 10
168.3812637153
 20
109.36456684
 30
0.0
 11
165.1312638234
 21
109.36456684
 31
0.0
  0
LINE
  5
71
330
6A
100
AcDbEntity
  8
Kontur
  6
CENTER2
 62
   136
370
    20
100
AcDbLine
 10
171.8812638234
 20
105.864566732
 30
0.0
 11
171.8812638234
 21
102.61456684
 31
0.0
  0
ENDBLK
  5
73
330
6A
100
AcDbEntity
  8
0
100
AcDbBlockEnd
  0
BLOCK
  5
7C
330
74
100
AcDbEntity
  8
0
100
AcDbBlockBegin
  2
SEANNOT_GROUP6
 70
     0
 71
     0
 10
0.0
 20
0.0
 30
0.0
  3
SEANNOT_GROUP6
  1

  0
LINE
  5
76
330
74
100
AcDbEntity
  8
Kontur
  6
CENTER2
 62
   136
370
    20
100
AcDbLine
 10
136.6312638774
 20
155.36456684
 30
0.0
 11
133.1312637694
 21
155.36456684
 31
0.0
  0
LINE
  5
77
330
74
100
AcDbEntity
  8
Kontur
  6
CENTER2
 62
   136
370
    20
100
AcDbLine
 10
134.8812638234
 20
157.114566894
 30
0.0
 11
134.8812638234
 21
153.614566786
 31
0.0
  0
LINE
  5
78
330
74
100
AcDbEntity
  8
Kontur
  6
CENTER2
 62
   136
370
    20
100
AcDbLine
 10
138.3812639314
 20
155.36456684
 30
0.0
 11
138.2522638234
 21
155.36456684
 31
0.0
  0
LINE
  5
79
330
74
100
AcDbEntity
  8
Kontur
  6
CENTER2
 62
   136
370
    20
100
AcDbLine
 10
134.8812638234
 20
158.864566948
 30
0.0
 11
134.8812638234
 21
158.73556684
 31
0.0
  0
LINE
  5
7A
330
74
100
AcDbEntity
  8
Kontur
  6
CENTER2
 62
   136
370
    20
100
AcDbLine
 10
131.3812637153
 20
155.36456684
 30
0.0
 11
131.5102638234
 21
155.36456684
 31
0.0
  0
LINE
  5
7B
330
74
100
AcDbEntity
  8
Kontur
  6
CENTER2
 62
   136
370
    20
100
AcDbLine
 10
134.8812638234
 20
151.864566732
 30
0.0
 11
134.8812638234
 21
151.99356684
 31
0.0
  0
ENDBLK
  5
7D
330
74
100
AcDbEntity
  8
0
100
AcDbBlockEnd
  0
BLOCK
  5
A6
330
82
100
AcDbEntity
  8
0
100
AcDbBlockBegin
  2
SE
 70
     0
 71
     0
 10
0.0
 20
0.0
 30
0.0
  3
SE
  1

  0
CIRCLE
  5
85
330
82
100
AcDbEntity
  8
GRUNDPLATTE
  6
Continuous
 62
     7
100
AcDbCircle
 10
171.8812638234
 20
109.36456684
 30
0.0
 40
2.75
  0
CIRCLE
  5
87
330
82
100
AcDbEntity
  8
GRUNDPLATTE
  6
HIDDEN2
 62
     7
100
AcDbCircle
 10
171.8812638234
 20
109.36456684
 30
0.0
 40
5.0
  0
CIRCLE
  5
88
330
82
100
AcDbEntity
  8
GRUNDPLATTE
  6
Continuous
 62
     7
100
AcDbCircle
 10
171.8812638234
 20
153.36456684
 30
0.0
 40
2.75
  0
CIRCLE
  5
89
330
82
100
AcDbEntity
  8
GRUNDPLATTE
  6
HIDDEN2
 62
     7
100
AcDbCircle
 10
171.8812638234
 20
153.36456684
 30
0.0
 40
5.0
  0
CIRCLE
  5
8A
330
82
100
AcDbEntity
  8
GRUNDPLATTE
  6
Continuous
 62
     7
100
AcDbCircle
 10
57.8812638234
 20
153.36456684
 30
0.0
 40
2.75
  0
CIRCLE
  5
8B
330
82
100
AcDbEntity
  8
GRUNDPLATTE
  6
HIDDEN2
 62
     7
100
AcDbCircle
 10
57.8812638234
 20
153.36456684
 30
0.0
 40
5.0
  0
CIRCLE
  5
8C
330
82
100
AcDbEntity
  8
GRUNDPLATTE
  6
Continuous
 62
     7
100
AcDbCircle
 10
57.8812638234
 20
109.36456684
 30
0.0
 40
2.75
  0
CIRCLE
  5
8D
330
82
100
AcDbEntity
  8
GRUNDPLATTE
  6
HIDDEN2
 62
     7
100
AcDbCircle
 10
57.8812638234
 20
109.36456684
 30
0.0
 40
5.0
  0
CIRCLE
  5
8E
330
82
100
AcDbEntity
  8
GRUNDPLATTE
  6
Continuous
 62
     7
100
AcDbCircle
 10
154.8812638234
 20
155.36456684
 30
0.0
 40
1.621
  0
CIRCLE
  5
8F
330
82
100
AcDbEntity
  8
GRUNDPLATTE
  6
Continuous
 62
     7
100
AcDbCircle
 10
134.8812638234
 20
155.36456684
 30
0.0
 40
1.621
  0
CIRCLE
  5
90
330
82
100
AcDbEntity
  8
GRUNDPLATTE
  6
Continuous
 62
     7
100
AcDbCircle
 10
99.8812638234
 20
131.36456684
 30
0.0
 40
5.0
  0
CIRCLE
  5
91
330
82
100
AcDbEntity
  8
GRUNDPLATTE
  6
Continuous
 62
     7
100
AcDbCircle
 10
99.8812638234
 20
131.36456684
 30
0.0
 40
2.75
  0
CIRCLE
  5
92
330
82
100
AcDbEntity
  8
GRUNDPLATTE
  6
Continuous
 62
     7
100
AcDbCircle
 10
59.8812638234
 20
131.36456684
 30
0.0
 40
5.0
  0
CIRCLE
  5
93
330
82
100
AcDbEntity
  8
GRUNDPLATTE
  6
Continuous
 62
     7
100
AcDbCircle
 10
59.8812638234
 20
131.36456684
 30
0.0
 40
2.75
  0
LINE
  5
94
330
82
100
AcDbEntity
  8
GRUNDPLATTE
  6
Continuous
 62
     7
100
AcDbLine
 10
51.8812638234
 20
101.36456684
 30
0.0
 11
177.8812638234
 21
101.36456684
 31
0.0
  0
LINE
  5
95
330
82
100
AcDbEntity
  8
GRUNDPLATTE
  6
Continuous
 62
     7
100
AcDbLine
 10
177.8812638234
 20
161.36456684
 30
0.0
 11
51.8812638234
 21
161.36456684
 31
0.0
  0
LINE
  5
96
330
82
100
AcDbEntity
  8
GRUNDPLATTE
  6
Continuous
 62
     7
100
AcDbLine
 10
49.8812638234
 20
159.36456684
 30
0.0
 11
49.8812638234
 21
103.36456684
 31
0.0
  0
LINE
  5
97
330
82
100
AcDbEntity
  8
GRUNDPLATTE
  6
Continuous
 62
     7
100
AcDbLine
 10
179.8812638234
 20
103.36456684
 30
0.0
 11
179.8812638234
 21
159.36456684
 31
0.0
  0
LINE
  5
98
330
82
100
AcDbEntity
  8
GRUNDPLATTE
  6
Continuous
 62
     7
100
AcDbLine
 10
179.8812638234
 20
159.36456684
 30
0.0
 11
177.8812638234
 21
161.36456684
 31
0.0
  0
LINE
  5
99
330
82
100
AcDbEntity
  8
GRUNDPLATTE
  6
Continuous
 62
     7
100
AcDbLine
 10
51.8812638234
 20
161.36456684
 30
0.0
 11
49.8812638234
 21
159.36456684
 31
0.0
  0
LINE
  5
9A
330
82
100
AcDbEntity
  8
GRUNDPLATTE
  6
Continuous
 62
     7
100
AcDbLine
 10
49.8812638234
 20
103.36456684
 30
0.0
 11
51.8812638234
 21
101.36456684
 31
0.0
  0
LINE
  5
9B
330
82
100
AcDbEntity
  8
GRUNDPLATTE
  6
Continuous
 62
     7
100
AcDbLine
 10
177.8812638234
 20
101.36456684
 30
0.0
 11
179.8812638234
 21
103.36456684
 31
0.0
  0
CIRCLE
  5
9C
330
82
100
AcDbEntity
  8
GRUNDPLATTE
  6
Continuous
 62
     7
100
AcDbCircle
 10
120.8812638234
 20
143.36456684
 30
0.0
 40
3.75
  0
CIRCLE
  5
9D
330
82
100
AcDbEntity
  8
GRUNDPLATTE
  6
Continuous
 62
     7
100
AcDbCircle
 10
120.8812638234
 20
143.36456684
 30
0.0
 40
1.7
  0
CIRCLE
  5
9E
330
82
100
AcDbEntity
  8
GRUNDPLATTE
  6
Continuous
 62
     7
100
AcDbCircle
 10
168.8812638234
 20
143.36456684
 30
0.0
 40
3.75
  0
CIRCLE
  5
9F
330
82
100
AcDbEntity
  8
GRUNDPLATTE
  6
Continuous
 62
     7
100
AcDbCircle
 10
168.8812638234
 20
143.36456684
 30
0.0
 40
1.7
  0
CIRCLE
  5
A0
330
82
100
AcDbEntity
  8
GRUNDPLATTE
  6
Continuous
 62
     7
100
AcDbCircle
 10
160.8812638234
 20
108.36456684
 30
0.0
 40
3.75
  0
CIRCLE
  5
A1
330
82
100
AcDbEntity
  8
GRUNDPLATTE
  6
Continuous
 62
     7
100
AcDbCircle
 10
160.8812638234
 20
108.36456684
 30
0.0
 40
1.7
  0
CIRCLE
  5
A2
330
82
100
AcDbEntity
  8
GRUNDPLATTE
  6
Continuous
 62
     7
100
AcDbCircle
 10
120.8812638234
 20
108.36456684
 30
0.0
 40
3.75
  0
CIRCLE
  5
A3
330
82
100
AcDbEntity
  8
GRUNDPLATTE
  6
Continuous
 62
     7
100
AcDbCircle
 10
120.8812638234
 20
108.36456684
 30
0.0
 40
1.7
  0
ARC
  5
A4
330
82
100
AcDbEntity
  8
GRUNDPLATTE
  6
Continuous
 62
     7
100
AcDbCircle
 10
154.8812638234
 20
155.36456684
 30
0.0
 40
2.0
100
AcDbArc
 50
255.0
 51
195.0
  0
ARC
  5
A5
330
82
100
AcDbEntity
  8
GRUNDPLATTE
  6
Continuous
 62
     7
100
AcDbCircle
 10
134.8812638234
 20
155.36456684
 30
0.0
 40
2.0
100
AcDbArc
 50
255.0
 51
195.0
  0
ENDBLK
  5
A7
330
82
100
AcDbEntity
  8
0
100
AcDbBlockEnd
  0
BLOCK
  5
AA
330
A9
100
AcDbEntity
  8
0
100
AcDbBlockBegin
  2
_Oblique
 70
     0
 71
     0
 10
0.0
 20
0.0
 30
0.0
  3
_Oblique
  1

  0
LINE
  5
AC
330
A9
100
AcDbEntity
  8
0
  6
ByBlock
 62
     0
370
    -2
100
AcDbLine
 10
-0.5
 20
-0.5
 30
0.0
 11
0.5
 21
0.5
 31
0.0
  0
ENDBLK
  5
AB
330
A9
100
AcDbEntity
  8
0
100
AcDbBlockEnd
  0
BLOCK
  5
AE
330
AD
100
AcDbEntity
  8
0
100
AcDbBlockBegin
  2
_Dot
 70
     0
 71
     0
 10
0.0
 20
0.0
 30
0.0
  3
_Dot
  1

  0
LWPOLYLINE
  5
B0
330
AD
100
AcDbEntity
  8
0
  6
ByBlock
 62
     0
100
AcDbPolyline
 90
        2
 70
     1
 43
0.5
 10
-0.25
 20
0.0
 42
1.0
 10
0.25
 20
0.0
 42
1.0
  0
LINE
  5
B1
330
AD
100
AcDbEntity
  8
0
  6
ByBlock
 62
     0
370
    -2
100
AcDbLine
 10
-0.5
 20
0.0
 30
0.0
 11
-1.0
 21
0.0
 31
0.0
  0
ENDBLK
  5
AF
330
AD
100
AcDbEntity
  8
0
100
AcDbBlockEnd
  0
BLOCK
  5
B5
330
B2
100
AcDbEntity
  8
0
100
AcDbBlockBegin
  2
_SE_FILLED
 70
     0
 71
     0
 10
0.0
 20
0.0
 30
0.0
  3
_SE_FILLED
  1

  0
SOLID
  5
B3
330
B2
100
AcDbEntity
  8
0
 62
     0
100
AcDbTrace
 10
0.0
 20
0.0
 30
0.0
 11
-1.0
 21
-0.1665
 31
0.0
 12
-1.0
 22
0.1665
 32
0.0
 13
0.0
 23
0.0
 33
0.0
  0
LINE
  5
B4
330
B2
100
AcDbEntity
  8
0
 62
     0
100
AcDbLine
 10
0.0
 20
0.0
 30
0.0
 11
-1.0
 21
0.0
 31
0.0
  0
ENDBLK
  5
B6
330
B2
100
AcDbEntity
  8
0
100
AcDbBlockEnd
  0
BLOCK
  5
C0
330
B9
100
AcDbEntity
  8
0
100
AcDbBlockBegin
  2
DMBLK1
 70
     0
 71
     0
 10
0.0
 20
0.0
 30
0.0
  3
DMBLK1
  1

  0
HATCH
  5
BA
330
B9
100
AcDbEntity
  8
Kontur
  6
Continuous
 62
   136
370
    20
100
AcDbHatch
 10
0.0
 20
0.0
 30
0.0
210
0.0
220
0.0
230
1.0
  2
SOLID
 70
     1
 71
     0
 91
        1
 92
        1
 93
        3
 72
     1
 10
63.38126393140728
 20
66.64381194030167
 11
63.38126393140728
 21
67.81047864297949
 72
     1
 10
63.38126393140728
 20
67.81047864297949
 11
59.88126382337385
 21
67.22714529164058
 72
     1
 10
59.88126382337385
 20
67.22714529164058
 11
63.38126393140728
 21
66.64381194030167
 97
        0
 75
     0
 76
     1
 98
        0
  0
HATCH
  5
BB
330
B9
100
AcDbEntity
  8
Kontur
  6
Continuous
 62
   136
370
    20
100
AcDbHatch
 10
0.0
 20
0.0
 30
0.0
210
0.0
220
0.0
230
1.0
  2
SOLID
 70
     1
 71
     0
 91
        1
 92
        1
 93
        3
 72
     1
 10
96.38126282127077
 20
66.64381194030167
 11
99.88126292930419
 21
67.22714529164058
 72
     1
 10
99.88126292930419
 20
67.22714529164058
 11
96.38126282127077
 21
67.81047864297949
 72
     1
 10
96.38126282127077
 20
67.81047864297949
 11
96.38126282127077
 21
66.64381194030167
 97
        0
 75
     0
 76
     1
 98
        0
  0
LINE
  5
BC
330
B9
100
AcDbEntity
  8
Kontur
  6
Continuous
 62
   136
370
    20
100
AcDbLine
 10
59.8812638234
 20
131.36456684
 30
0.0
 11
59.8812638234
 21
65.4771452376
 31
0.0
  0
LINE
  5
BD
330
B9
100
AcDbEntity
  8
Kontur
  6
Continuous
 62
   136
370
    20
100
AcDbLine
 10
99.8812638234
 20
131.36456684
 30
0.0
 11
99.8812638234
 21
65.4771452376
 31
0.0
  0
LINE
  5
BE
330
B9
100
AcDbEntity
  8
Kontur
  6
Continuous
 62
   136
370
    20
100
AcDbLine
 10
59.8812638234
 20
67.2271452916
 30
0.0
 11
99.8812629293
 21
67.2271452916
 31
0.0
  0
TEXT
  5
BF
330
B9
100
AcDbEntity
  8
Kontur
  6
Continuous
 62
   136
370
    20
100
AcDbText
 10
77.8130815582
 20
67.9271452916
 30
0.0
 40
3.5
  1
40
  7
SEACAD_seiso_ttf
 11
77.8130815582
 21
71.4271452916
 31
0.0
100
AcDbText
 73
     3
  0
ENDBLK
  5
C1
330
B9
100
AcDbEntity
  8
0
100
AcDbBlockEnd
  0
BLOCK
  5
CA
330
C3
100
AcDbEntity
  8
0
100
AcDbBlockBegin
  2
DMBLK2
 70
     0
 71
     0
 10
0.0
 20
0.0
 30
0.0
  3
DMBLK2
  1

  0
HATCH
  5
C4
330
C3
100
AcDbEntity
  8
Kontur
  6
Continuous
 62
   136
370
    20
100
AcDbHatch
 10
0.0
 20
0.0
 30
0.0
210
0.0
220
0.0
230
1.0
  2
SOLID
 70
     1
 71
     0
 91
        1
 92
        1
 93
        3
 72
     1
 10
103.3812639314073
 20
66.25002640401246
 11
103.3812639314073
 21
67.41669310669027
 72
     1
 10
103.3812639314073
 20
67.41669310669027
 11
99.88126382337386
 21
66.83335975535137
 72
     1
 10
99.88126382337386
 20
66.83335975535137
 11
103.3812639314073
 21
66.25002640401246
 97
        0
 75
     0
 76
     1
 98
        0
  0
HATCH
  5
C5
330
C3
100
AcDbEntity
  8
Kontur
  6
Continuous
 62
   136
370
    20
100
AcDbHatch
 10
0.0
 20
0.0
 30
0.0
210
0.0
220
0.0
230
1.0
  2
SOLID
 70
     1
 71
     0
 91
        1
 92
        1
 93
        3
 72
     1
 10
176.3812619272011
 20
66.25002640401246
 11
179.8812620352345
 21
66.83335975535137
 72
     1
 10
179.8812620352345
 20
66.83335975535137
 11
176.3812619272011
 21
67.41669310669027
 72
     1
 10
176.3812619272011
 20
67.41669310669027
 11
176.3812619272011
 21
66.25002640401246
 97
        0
 75
     0
 76
     1
 98
        0
  0
LINE
  5
C6
330
C3
100
AcDbEntity
  8
Kontur
  6
Continuous
 62
   136
370
    20
100
AcDbLine
 10
99.8812638234
 20
131.36456684
 30
0.0
 11
99.8812638234
 21
65.0833597013
 31
0.0
  0
LINE
  5
C7
330
C3
100
AcDbEntity
  8
Kontur
  6
Continuous
 62
   136
370
    20
100
AcDbLine
 10
179.8812638234
 20
103.36456684
 30
0.0
 11
179.8812638234
 21
65.0833597013
 31
0.0
  0
LINE
  5
C8
330
C3
100
AcDbEntity
  8
Kontur
  6
Continuous
 62
   136
370
    20
100
AcDbLine
 10
99.8812638234
 20
66.8333597554
 30
0.0
 11
179.8812620352
 21
66.8333597554
 31
0.0
  0
TEXT
  5
C9
330
C3
100
AcDbEntity
  8
Kontur
  6
Continuous
 62
   136
370
    20
100
AcDbText
 10
137.7335356566
 20
67.5333597554
 30
0.0
 40
3.5
  1
80
  7
SEACAD_seiso_ttf
 11
137.7335356566
 21
71.0333597554
 31
0.0
100
AcDbText
 73
     3
  0
ENDBLK
  5
CB
330
C3
100
AcDbEntity
  8
0
100
AcDbBlockEnd
  0
BLOCK
  5
D4
330
CD
100
AcDbEntity
  8
0
100
AcDbBlockBegin
  2
DMBLK3
 70
     0
 71
     0
 10
0.0
 20
0.0
 30
0.0
  3
DMBLK3
  1

  0
HATCH
  5
CE
330
CD
100
AcDbEntity
  8
Kontur
  6
Continuous
 62
   136
370
    20
100
AcDbHatch
 10
0.0
 20
0.0
 30
0.0
210
0.0
220
0.0
230
1.0
  2
SOLID
 70
     1
 71
     0
 91
        1
 92
        1
 93
        3
 72
     1
 10
151.3812637153404
 20
148.9755627392722
 11
154.8812638233738
 21
149.5588960906111
 72
     1
 10
154.8812638233738
 20
149.5588960906111
 11
151.3812637153404
 21
150.14222944195
 72
     1
 10
151.3812637153404
 20
150.14222944195
 11
151.3812637153404
 21
148.9755627392722
 97
        0
 75
     0
 76
     1
 98
        0
  0
HATCH
  5
CF
330
CD
100
AcDbEntity
  8
Kontur
  6
Continuous
 62
   136
370
    20
100
AcDbHatch
 10
0.0
 20
0.0
 30
0.0
210
0.0
220
0.0
230
1.0
  2
SOLID
 70
     1
 71
     0
 91
        1
 92
        1
 93
        3
 72
     1
 10
138.3812643784421
 20
148.9755627392722
 11
138.3812643784421
 21
150.14222944195
 72
     1
 10
138.3812643784421
 20
150.14222944195
 11
134.8812642704087
 21
149.5588960906111
 72
     1
 10
134.8812642704087
 20
149.5588960906111
 11
138.3812643784421
 21
148.9755627392722
 97
        0
 75
     0
 76
     1
 98
        0
  0
LINE
  5
D0
330
CD
100
AcDbEntity
  8
Kontur
  6
Continuous
 62
   136
370
    20
100
AcDbLine
 10
154.8812638234
 20
155.36456684
 30
0.0
 11
154.8812638234
 21
147.8088960366
 31
0.0
  0
LINE
  5
D1
330
CD
100
AcDbEntity
  8
Kontur
  6
Continuous
 62
   136
370
    20
100
AcDbLine
 10
134.8812638234
 20
155.36456684
 30
0.0
 11
134.8812638234
 21
147.8088960366
 31
0.0
  0
LINE
  5
D2
330
CD
100
AcDbEntity
  8
Kontur
  6
Continuous
 62
   136
370
    20
100
AcDbLine
 10
154.8812638234
 20
149.5588960906
 30
0.0
 11
134.8812642704
 21
149.5588960906
 31
0.0
  0
TEXT
  5
D3
330
CD
100
AcDbEntity
  8
Kontur
  6
Continuous
 62
   136
370
    20
100
AcDbText
 10
142.7733095014
 20
150.2588960906
 30
0.0
 40
3.5
  1
20
  7
SEACAD_seiso_ttf
 11
142.7733095014
 21
153.7588960906
 31
0.0
100
AcDbText
 73
     3
  0
ENDBLK
  5
D5
330
CD
100
AcDbEntity
  8
0
100
AcDbBlockEnd
  0
BLOCK
  5
DE
330
D7
100
AcDbEntity
  8
0
100
AcDbBlockBegin
  2
DMBLK4
 70
     0
 71
     0
 10
0.0
 20
0.0
 30
0.0
  3
DMBLK4
  1

  0
HATCH
  5
D8
330
D7
100
AcDbEntity
  8
Kontur
  6
Continuous
 62
   136
370
    20
100
AcDbHatch
 10
0.0
 20
0.0
 30
0.0
210
0.0
220
0.0
230
1.0
  2
SOLID
 70
     1
 71
     0
 91
        1
 92
        1
 93
        3
 72
     1
 10
211.270472118446
 20
104.8645669480406
 11
210.1038054157682
 21
104.8645669480406
 72
     1
 10
210.1038054157682
 20
104.8645669480406
 11
210.6871387671071
 21
101.3645668400071
 72
     1
 10
210.6871387671071
 20
101.3645668400071
 11
211.270472118446
 21
104.8645669480406
 97
        0
 75
     0
 76
     1
 98
        0
  0
HATCH
  5
D9
330
D7
100
AcDbEntity
  8
Kontur
  6
Continuous
 62
   136
370
    20
100
AcDbHatch
 10
0.0
 20
0.0
 30
0.0
210
0.0
220
0.0
230
1.0
  2
SOLID
 70
     1
 71
     0
 91
        1
 92
        1
 93
        3
 72
     1
 10
211.270472118446
 20
151.8645681326829
 11
210.6871387671071
 21
155.3645682407163
 72
     1
 10
210.6871387671071
 20
155.3645682407163
 11
210.1038054157682
 21
151.8645681326829
 72
     1
 10
210.1038054157682
 20
151.8645681326829
 11
211.270472118446
 21
151.8645681326829
 97
        0
 75
     0
 76
     1
 98
        0
  0
LINE
  5
DA
330
D7
100
AcDbEntity
  8
Kontur
  6
Continuous
 62
   136
370
    20
100
AcDbLine
 10
177.8812638234
 20
101.36456684
 30
0.0
 11
212.4371388211
 21
101.36456684
 31
0.0
  0
LINE
  5
DB
330
D7
100
AcDbEntity
  8
Kontur
  6
Continuous
 62
   136
370
    20
100
AcDbLine
 10
154.8812638234
 20
155.36456684
 30
0.0
 11
212.4371388211
 21
155.36456684
 31
0.0
  0
LINE
  5
DC
330
D7
100
AcDbEntity
  8
Kontur
  6
Continuous
 62
   136
370
    20
100
AcDbLine
 10
210.6871387671
 20
101.36456684
 30
0.0
 11
210.6871387671
 21
155.3645682407
 31
0.0
  0
TEXT
  5
DD
330
D7
100
AcDbEntity
  8
Kontur
  6
Continuous
 62
   136
370
    20
100
AcDbText
 10
209.9871387671
 20
126.3361584495
 30
0.0
 40
3.5
  1
54
 50
90.0
  7
SEACAD_seiso_ttf
 11
206.4871387671
 21
126.3361584495
 31
0.0
100
AcDbText
 73
     3
  0
ENDBLK
  5
DF
330
D7
100
AcDbEntity
  8
0
100
AcDbBlockEnd
  0
BLOCK
  5
E8
330
E1
100
AcDbEntity
  8
0
100
AcDbBlockBegin
  2
DMBLK5
 70
     0
 71
     0
 10
0.0
 20
0.0
 30
0.0
  3
DMBLK5
  1

  0
HATCH
  5
E2
330
E1
100
AcDbEntity
  8
Kontur
  6
Continuous
 62
   136
370
    20
100
AcDbHatch
 10
0.0
 20
0.0
 30
0.0
210
0.0
220
0.0
230
1.0
  2
SOLID
 70
     1
 71
     0
 91
        1
 92
        1
 93
        3
 72
     1
 10
168.3812637153404
 20
172.9838206921013
 11
168.3812637153404
 21
171.8171539894235
 72
     1
 10
168.3812637153404
 20
171.8171539894235
 11
171.8812638233738
 21
172.4004873407624
 72
     1
 10
171.8812638233738
 20
172.4004873407624
 11
168.3812637153404
 21
172.9838206921013
 97
        0
 75
     0
 76
     1
 98
        0
  0
HATCH
  5
E3
330
E1
100
AcDbEntity
  8
Kontur
  6
Continuous
 62
   136
370
    20
100
AcDbHatch
 10
0.0
 20
0.0
 30
0.0
210
0.0
220
0.0
230
1.0
  2
SOLID
 70
     1
 71
     0
 91
        1
 92
        1
 93
        3
 72
     1
 10
61.38126387180262
 20
172.9838206921013
 11
57.8812637637692
 21
172.4004873407624
 72
     1
 10
57.8812637637692
 20
172.4004873407624
 11
61.38126387180262
 21
171.8171539894235
 72
     1
 10
61.38126387180262
 20
171.8171539894235
 11
61.38126387180262
 21
172.9838206921013
 97
        0
 75
     0
 76
     1
 98
        0
  0
LINE
  5
E4
330
E1
100
AcDbEntity
  8
Kontur
  6
Continuous
 62
   136
370
    20
100
AcDbLine
 10
171.8812638234
 20
153.36456684
 30
0.0
 11
171.8812638234
 21
174.1504873948
 31
0.0
  0
LINE
  5
E5
330
E1
100
AcDbEntity
  8
Kontur
  6
Continuous
 62
   136
370
    20
100
AcDbLine
 10
57.8812638234
 20
153.36456684
 30
0.0
 11
57.8812638234
 21
174.1504873948
 31
0.0
  0
LINE
  5
E6
330
E1
100
AcDbEntity
  8
Kontur
  6
Continuous
 62
   136
370
    20
100
AcDbLine
 10
171.8812638234
 20
172.4004873408
 30
0.0
 11
57.8812637638
 21
172.4004873408
 31
0.0
  0
TEXT
  5
E7
330
E1
100
AcDbEntity
  8
Kontur
  6
Continuous
 62
   136
370
    20
100
AcDbText
 10
112.4153547027
 20
173.1004873408
 30
0.0
 40
3.5
  1
114
  7
SEACAD_seiso_ttf
 11
112.4153547027
 21
176.6004873408
 31
0.0
100
AcDbText
 73
     3
  0
ENDBLK
  5
E9
330
E1
100
AcDbEntity
  8
0
100
AcDbBlockEnd
  0
BLOCK
  5
F2
330
EB
100
AcDbEntity
  8
0
100
AcDbBlockBegin
  2
DMBLK6
 70
     0
 71
     0
 10
0.0
 20
0.0
 30
0.0
  3
DMBLK6
  1

  0
HATCH
  5
EC
330
EB
100
AcDbEntity
  8
Kontur
  6
Continuous
 62
   136
370
    20
100
AcDbHatch
 10
0.0
 20
0.0
 30
0.0
210
0.0
220
0.0
230
1.0
  2
SOLID
 70
     1
 71
     0
 91
        1
 92
        1
 93
        3
 72
     1
 10
40.97396915449573
 20
149.8645667319737
 11
42.14063585717353
 21
149.8645667319737
 72
     1
 10
42.14063585717353
 20
149.8645667319737
 11
41.55730250583463
 21
153.3645668400071
 72
     1
 10
41.55730250583463
 20
153.3645668400071
 11
40.97396915449573
 21
149.8645667319737
 97
        0
 75
     0
 76
     1
 98
        0
  0
HATCH
  5
ED
330
EB
100
AcDbEntity
  8
Kontur
  6
Continuous
 62
   136
370
    20
100
AcDbHatch
 10
0.0
 20
0.0
 30
0.0
210
0.0
220
0.0
230
1.0
  2
SOLID
 70
     1
 71
     0
 91
        1
 92
        1
 93
        3
 72
     1
 10
40.97396915449573
 20
112.8645671864592
 11
41.55730250583463
 21
109.3645670784257
 72
     1
 10
41.55730250583463
 20
109.3645670784257
 11
42.14063585717353
 21
112.8645671864592
 72
     1
 10
42.14063585717353
 20
112.8645671864592
 11
40.97396915449573
 21
112.8645671864592
 97
        0
 75
     0
 76
     1
 98
        0
  0
LINE
  5
EE
330
EB
100
AcDbEntity
  8
Kontur
  6
Continuous
 62
   136
370
    20
100
AcDbLine
 10
57.8812638234
 20
153.36456684
 30
0.0
 11
39.8073024518
 21
153.36456684
 31
0.0
  0
LINE
  5
EF
330
EB
100
AcDbEntity
  8
Kontur
  6
Continuous
 62
   136
370
    20
100
AcDbLine
 10
57.8812638234
 20
109.36456684
 30
0.0
 11
39.8073024518
 21
109.36456684
 31
0.0
  0
LINE
  5
F0
330
EB
100
AcDbEntity
  8
Kontur
  6
Continuous
 62
   136
370
    20
100
AcDbLine
 10
41.5573025058
 20
153.36456684
 30
0.0
 11
41.5573025058
 21
109.3645670784
 31
0.0
  0
TEXT
  5
F1
330
EB
100
AcDbEntity
  8
Kontur
  6
Continuous
 62
   136
370
    20
100
AcDbText
 10
40.8573025058
 20
129.296385141
 30
0.0
 40
3.5
  1
44
 50
90.0
  7
SEACAD_seiso_ttf
 11
37.3573025058
 21
129.296385141
 31
0.0
100
AcDbText
 73
     3
  0
ENDBLK
  5
F3
330
EB
100
AcDbEntity
  8
0
100
AcDbBlockEnd
  0
BLOCK
  5
FD
330
F5
100
AcDbEntity
  8
0
100
AcDbBlockBegin
  2
DMBLK7
 70
     0
 71
     0
 10
0.0
 20
0.0
 30
0.0
  3
DMBLK7
  1

  0
HATCH
  5
F6
330
F5
100
AcDbEntity
  8
Kontur
  6
Continuous
 62
   136
370
    20
100
AcDbHatch
 10
0.0
 20
0.0
 30
0.0
210
0.0
220
0.0
230
1.0
  2
SOLID
 70
     1
 71
     0
 91
        1
 92
        1
 93
        3
 72
     1
 10
129.3812637153404
 20
166.3288481537493
 11
129.3812637153404
 21
165.1621814510715
 72
     1
 10
129.3812637153404
 20
165.1621814510715
 11
132.8812638233738
 21
165.7455148024104
 72
     1
 10
132.8812638233738
 20
165.7455148024104
 11
129.3812637153404
 21
166.3288481537493
 97
        0
 75
     0
 76
     1
 98
        0
  0
HATCH
  5
F7
330
F5
100
AcDbEntity
  8
Kontur
  6
Continuous
 62
   136
370
    20
100
AcDbHatch
 10
0.0
 20
0.0
 30
0.0
210
0.0
220
0.0
230
1.0
  2
SOLID
 70
     1
 71
     0
 91
        1
 92
        1
 93
        3
 72
     1
 10
140.3812639314073
 20
166.3288481537493
 11
136.8812638233738
 21
165.7455148024104
 72
     1
 10
136.8812638233738
 20
165.7455148024104
 11
140.3812639314073
 21
165.1621814510715
 72
     1
 10
140.3812639314073
 20
165.1621814510715
 11
140.3812639314073
 21
166.3288481537493
 97
        0
 75
     0
 76
     1
 98
        0
  0
LINE
  5
F8
330
F5
100
AcDbEntity
  8
Kontur
  6
Continuous
 62
   136
370
    20
100
AcDbLine
 10
132.8812638234
 20
155.36456684
 30
0.0
 11
132.8812638234
 21
167.4955148564
 31
0.0
  0
LINE
  5
F9
330
F5
100
AcDbEntity
  8
Kontur
  6
Continuous
 62
   136
370
    20
100
AcDbLine
 10
136.8812638234
 20
155.36456684
 30
0.0
 11
136.8812638234
 21
167.4955148564
 31
0.0
  0
LINE
  5
FA
330
F5
100
AcDbEntity
  8
Kontur
  6
Continuous
 62
   136
370
    20
100
AcDbLine
 10
125.8812636073
 20
165.7455148024
 30
0.0
 11
149.1696914594
 21
165.7455148024
 31
0.0
  0
TEXT
  5
FB
330
F5
100
AcDbEntity
  8
Kontur
  6
Continuous
 62
   136
370
    20
100
AcDbText
 10
146.4015093783
 20
166.4455148024
 30
0.0
 40
3.5
  1
4
  7
SEACAD_seiso_ttf
 11
146.4015093783
 21
169.9455148024
 31
0.0
100
AcDbText
 73
     3
  0
TEXT
  5
FC
330
F5
100
AcDbEntity
  8
Kontur
  6
Continuous
 62
   136
370
    20
100
AcDbText
 10
142.9969639237
 20
166.4455148024
 30
0.0
 40
3.5
  1
M
  7
SEACAD_seiso_ttf
 11
142.9969639237
 21
169.9455148024
 31
0.0
100
AcDbText
 73
     3
  0
ENDBLK
  5
FE
330
F5
100
AcDbEntity
  8
0
100
AcDbBlockEnd
  0
BLOCK
  5
107
330
100
100
AcDbEntity
  8
0
100
AcDbBlockBegin
  2
DMBLK8
 70
     0
 71
     0
 10
0.0
 20
0.0
 30
0.0
  3
DMBLK8
  1

  0
HATCH
  5
101
330
100
100
AcDbEntity
  8
Kontur
  6
Continuous
 62
   136
370
    20
100
AcDbHatch
 10
0.0
 20
0.0
 30
0.0
210
0.0
220
0.0
230
1.0
  2
SOLID
 70
     1
 71
     0
 91
        1
 92
        1
 93
        3
 72
     1
 10
176.3812637153404
 20
50.73496803556804
 11
179.8812638233738
 21
51.31830138690695
 72
     1
 10
179.8812638233738
 20
51.31830138690695
 11
176.3812637153404
 21
51.90163473824585
 72
     1
 10
176.3812637153404
 20
51.90163473824585
 11
176.3812637153404
 21
50.73496803556804
 97
        0
 75
     0
 76
     1
 98
        0
  0
HATCH
  5
102
330
100
100
AcDbEntity
  8
Kontur
  6
Continuous
 62
   136
370
    20
100
AcDbHatch
 10
0.0
 20
0.0
 30
0.0
210
0.0
220
0.0
230
1.0
  2
SOLID
 70
     1
 71
     0
 91
        1
 92
        1
 93
        3
 72
     1
 10
53.38126869977886
 20
50.73496803556804
 11
53.38126869977886
 21
51.90163473824585
 72
     1
 10
53.38126869977886
 20
51.90163473824585
 11
49.88126859174544
 21
51.31830138690695
 72
     1
 10
49.88126859174544
 20
51.31830138690695
 11
53.38126869977886
 21
50.73496803556804
 97
        0
 75
     0
 76
     1
 98
        0
  0
LINE
  5
103
330
100
100
AcDbEntity
  8
Kontur
  6
Continuous
 62
   136
370
    20
100
AcDbLine
 10
179.8812638234
 20
103.36456684
 30
0.0
 11
179.8812638234
 21
49.5683013329
 31
0.0
  0
LINE
  5
104
330
100
100
AcDbEntity
  8
Kontur
  6
Continuous
 62
   136
370
    20
100
AcDbLine
 10
49.8812638234
 20
103.36456684
 30
0.0
 11
49.8812638234
 21
49.5683013329
 31
0.0
  0
LINE
  5
105
330
100
100
AcDbEntity
  8
Kontur
  6
Continuous
 62
   136
370
    20
100
AcDbLine
 10
179.8812638234
 20
51.3183013869
 30
0.0
 11
49.8812685917
 21
51.3183013869
 31
0.0
  0
TEXT
  5
106
330
100
100
AcDbEntity
  8
Kontur
  6
Continuous
 62
   136
370
    20
100
AcDbText
 10
112.2164934803
 20
52.0183013869
 30
0.0
 40
3.5
  1
130
  7
SEACAD_seiso_ttf
 11
112.2164934803
 21
55.5183013869
 31
0.0
100
AcDbText
 73
     3
  0
ENDBLK
  5
108
330
100
100
AcDbEntity
  8
0
100
AcDbBlockEnd
  0
BLOCK
  5
111
330
10A
100
AcDbEntity
  8
0
100
AcDbBlockBegin
  2
DMBLK9
 70
     0
 71
     0
 10
0.0
 20
0.0
 30
0.0
  3
DMBLK9
  1

  0
HATCH
  5
10B
330
10A
100
AcDbEntity
  8
Kontur
  6
Continuous
 62
   136
370
    20
100
AcDbHatch
 10
0.0
 20
0.0
 30
0.0
210
0.0
220
0.0
230
1.0
  2
SOLID
 70
     1
 71
     0
 91
        1
 92
        1
 93
        3
 72
     1
 10
227.3235638530937
 20
104.8645669480406
 11
226.1568971504159
 21
104.8645669480406
 72
     1
 10
226.1568971504159
 20
104.8645669480406
 11
226.7402305017548
 21
101.3645668400071
 72
     1
 10
226.7402305017548
 20
101.3645668400071
 11
227.3235638530937
 21
104.8645669480406
 97
        0
 75
     0
 76
     1
 98
        0
  0
HATCH
  5
10C
330
10A
100
AcDbEntity
  8
Kontur
  6
Continuous
 62
   136
370
    20
100
AcDbHatch
 10
0.0
 20
0.0
 30
0.0
210
0.0
220
0.0
230
1.0
  2
SOLID
 70
     1
 71
     0
 91
        1
 92
        1
 93
        3
 72
     1
 10
227.3235638530937
 20
157.8645653908692
 11
226.7402305017548
 21
161.3645654989026
 72
     1
 10
226.7402305017548
 20
161.3645654989026
 11
226.1568971504159
 21
157.8645653908692
 72
     1
 10
226.1568971504159
 20
157.8645653908692
 11
227.3235638530937
 21
157.8645653908692
 97
        0
 75
     0
 76
     1
 98
        0
  0
LINE
  5
10D
330
10A
100
AcDbEntity
  8
Kontur
  6
Continuous
 62
   136
370
    20
100
AcDbLine
 10
177.8812638234
 20
101.36456684
 30
0.0
 11
228.4902305558
 21
101.36456684
 31
0.0
  0
LINE
  5
10E
330
10A
100
AcDbEntity
  8
Kontur
  6
Continuous
 62
   136
370
    20
100
AcDbLine
 10
177.8812638234
 20
161.36456684
 30
0.0
 11
228.4902305558
 21
161.36456684
 31
0.0
  0
LINE
  5
10F
330
10A
100
AcDbEntity
  8
Kontur
  6
Continuous
 62
   136
370
    20
100
AcDbLine
 10
226.7402305018
 20
101.36456684
 30
0.0
 11
226.7402305018
 21
161.3645654989
 31
0.0
  0
TEXT
  5
110
330
10A
100
AcDbEntity
  8
Kontur
  6
Continuous
 62
   136
370
    20
100
AcDbText
 10
226.0402305018
 20
129.256611624
 30
0.0
 40
3.5
  1
60
 50
90.0
  7
SEACAD_seiso_ttf
 11
222.5402305018
 21
129.256611624
 31
0.0
100
AcDbText
 73
     3
  0
ENDBLK
  5
112
330
10A
100
AcDbEntity
  8
0
100
AcDbBlockEnd
  0
BLOCK
  5
11B
330
114
100
AcDbEntity
  8
0
100
AcDbBlockBegin
  2
DMBLK10
 70
     0
 71
     0
 10
0.0
 20
0.0
 30
0.0
  3
DMBLK10
  1

  0
HATCH
  5
115
330
114
100
AcDbEntity
  8
Kontur
  6
Continuous
 62
   136
370
    20
100
AcDbHatch
 10
0.0
 20
0.0
 30
0.0
210
0.0
220
0.0
230
1.0
  2
SOLID
 70
     1
 71
     0
 91
        1
 92
        1
 93
        3
 72
     1
 10
176.3812637153404
 20
184.1105670634898
 11
176.3812637153404
 21
182.943900360812
 72
     1
 10
176.3812637153404
 20
182.943900360812
 11
179.8812638233738
 21
183.5272337121509
 72
     1
 10
179.8812638233738
 20
183.5272337121509
 11
176.3812637153404
 21
184.1105670634898
 97
        0
 75
     0
 76
     1
 98
        0
  0
HATCH
  5
116
330
114
100
AcDbEntity
  8
Kontur
  6
Continuous
 62
   136
370
    20
100
AcDbHatch
 10
0.0
 20
0.0
 30
0.0
210
0.0
220
0.0
230
1.0
  2
SOLID
 70
     1
 71
     0
 91
        1
 92
        1
 93
        3
 72
     1
 10
158.3812635588782
 20
184.1105670634898
 11
154.8812634508448
 21
183.5272337121509
 72
     1
 10
154.8812634508448
 20
183.5272337121509
 11
158.3812635588782
 21
182.943900360812
 72
     1
 10
158.3812635588782
 20
182.943900360812
 11
158.3812635588782
 21
184.1105670634898
 97
        0
 75
     0
 76
     1
 98
        0
  0
LINE
  5
117
330
114
100
AcDbEntity
  8
Kontur
  6
Continuous
 62
   136
370
    20
100
AcDbLine
 10
179.8812638234
 20
159.36456684
 30
0.0
 11
179.8812638234
 21
185.2772337662
 31
0.0
  0
LINE
  5
118
330
114
100
AcDbEntity
  8
Kontur
  6
Continuous
 62
   136
370
    20
100
AcDbLine
 10
154.8812638234
 20
155.36456684
 30
0.0
 11
154.8812638234
 21
185.2772337662
 31
0.0
  0
LINE
  5
119
330
114
100
AcDbEntity
  8
Kontur
  6
Continuous
 62
   136
370
    20
100
AcDbLine
 10
179.8812638234
 20
183.5272337122
 30
0.0
 11
154.8812634508
 21
183.5272337122
 31
0.0
  0
TEXT
  5
11A
330
114
100
AcDbEntity
  8
Kontur
  6
Continuous
 62
   136
370
    20
100
AcDbText
 10
165.3130818189
 20
184.2272337122
 30
0.0
 40
3.5
  1
25
  7
SEACAD_seiso_ttf
 11
165.3130818189
 21
187.7272337122
 31
0.0
100
AcDbText
 73
     3
  0
ENDBLK
  5
11C
330
114
100
AcDbEntity
  8
0
100
AcDbBlockEnd
  0
BLOCK
  5
138
330
11D
100
AcDbEntity
  8
0
100
AcDbBlockBegin
  2
SE1
 70
     0
 71
     0
 10
0.0
 20
0.0
 30
0.0
  3
SE1
  1

  0
INSERT
  5
120
330
11D
100
AcDbEntity
  8
Kontur
100
AcDbBlockReference
  2
SE2
 10
0.0
 20
0.0
 30
0.0
  0
INSERT
  5
125
330
11D
100
AcDbEntity
  8
Kontur
100
AcDbBlockReference
  2
SE3
 10
0.0
 20
0.0
 30
0.0
  0
INSERT
  5
12A
330
11D
100
AcDbEntity
  8
Kontur
100
AcDbBlockReference
  2
SE4
 10
0.0
 20
0.0
 30
0.0
  0
INSERT
  5
130
330
11D
100
AcDbEntity
  8
Kontur
100
AcDbBlockReference
  2
SE5
 10
0.0
 20
0.0
 30
0.0
  0
LINE
  5
135
330
11D
100
AcDbEntity
  8
Kontur
  6
CENTER2
 62
     7
100
AcDbLine
 10
57.8812638234
 20
180.7639797083
 30
0.0
 11
57.8812638234
 21
186.0139797083
 31
0.0
  0
LINE
  5
136
330
11D
100
AcDbEntity
  8
Kontur
  6
CENTER2
 62
     7
100
AcDbLine
 10
120.8812638234
 20
94.7346697729
 30
0.0
 11
120.8812638234
 21
89.4846697729
 31
0.0
  0
LWPOLYLINE
  5
137
330
11D
100
AcDbEntity
  8
Kontur
  6
CENTER2
 62
     7
100
AcDbPolyline
 90
        6
 70
     0
 43
0.0007
 10
57.8812638234
 20
180.7639797083
 10
57.8812638234
 20
143.1925910492
 10
59.8812638234
 20
143.1925910492
 10
59.8812638234
 20
120.1730621748
 10
120.8812638234
 20
120.1730621748
 10
120.8812638234
 20
94.7346697729
  0
ENDBLK
  5
139
330
11D
100
AcDbEntity
  8
0
100
AcDbBlockEnd
  0
BLOCK
  5
122
330
11F
100
AcDbEntity
  8
0
100
AcDbBlockBegin
  2
SE2
 70
     0
 71
     0
 10
0.0
 20
0.0
 30
0.0
  3
SE2
  1

  0
TEXT
  5
121
330
11F
100
AcDbEntity
  8
0
  6
Continuous
 62
     7
100
AcDbText
 10
27.9721729143
 20
177.2639797083
 30
0.0
 40
7.0
  1
F
  7
SEACAD_seiso_ttf
 11
27.9721729143
 21
184.2639797083
 31
0.0
100
AcDbText
 73
     3
  0
ENDBLK
  5
123
330
11F
100
AcDbEntity
  8
0
100
AcDbBlockEnd
  0
BLOCK
  5
127
330
124
100
AcDbEntity
  8
0
100
AcDbBlockBegin
  2
SE3
 70
     0
 71
     0
 10
0.0
 20
0.0
 30
0.0
  3
SE3
  1

  0
TEXT
  5
126
330
124
100
AcDbEntity
  8
0
  6
Continuous
 62
     7
100
AcDbText
 10
90.9721729143
 20
91.2346697729
 30
0.0
 40
7.0
  1
F
  7
SEACAD_seiso_ttf
 11
90.9721729143
 21
98.2346697729
 31
0.0
100
AcDbText
 73
     3
  0
ENDBLK
  5
128
330
124
100
AcDbEntity
  8
0
100
AcDbBlockEnd
  0
BLOCK
  5
12D
330
129
100
AcDbEntity
  8
0
100
AcDbBlockBegin
  2
SE4
 70
     0
 71
     0
 10
0.0
 20
0.0
 30
0.0
  3
SE4
  1

  0
LWPOLYLINE
  5
12B
330
129
100
AcDbEntity
  8
0
  6
Continuous
 62
     7
100
AcDbPolyline
 90
        2
 70
     0
 43
0.0
 10
36.8812638234
 20
180.7639797083
 10
57.8812638234
 20
180.7639797083
  0
LWPOLYLINE
  5
12C
330
129
100
AcDbEntity
  8
0
  6
Continuous
 62
     7
100
AcDbPolyline
 90
        4
 70
     0
 43
0.0
 10
50.8812636073
 20
179.5973130056
 10
50.8812636073
 20
181.930646411
 10
57.8812638234
 20
180.7639797083
 10
50.8812636073
 20
179.5973130056
  0
ENDBLK
  5
12E
330
129
100
AcDbEntity
  8
0
100
AcDbBlockEnd
  0
BLOCK
  5
133
330
12F
100
AcDbEntity
  8
0
100
AcDbBlockBegin
  2
SE5
 70
     0
 71
     0
 10
0.0
 20
0.0
 30
0.0
  3
SE5
  1

  0
LWPOLYLINE
  5
131
330
12F
100
AcDbEntity
  8
0
  6
Continuous
 62
     7
100
AcDbPolyline
 90
        2
 70
     0
 43
0.0
 10
99.8812638234
 20
94.7346697729
 10
120.8812638234
 20
94.7346697729
  0
LWPOLYLINE
  5
132
330
12F
100
AcDbEntity
  8
0
  6
Continuous
 62
     7
100
AcDbPolyline
 90
        4
 70
     0
 43
0.0
 10
113.8812636073
 20
93.5680030702
 10
113.8812636073
 20
95.9013364755
 10
120.8812638234
 20
94.7346697729
 10
113.8812636073
 20
93.5680030702
  0
ENDBLK
  5
134
330
12F
100
AcDbEntity
  8
0
100
AcDbBlockEnd
  0
BLOCK
  5
167
330
13A
100
AcDbEntity
  8
0
100
AcDbBlockBegin
  2
SE6
 70
     0
 71
     0
 10
0.0
 20
0.0
 30
0.0
  3
SE6
  1

  0
ELLIPSE
  5
13C
330
13A
100
AcDbEntity
  8
GRUNDPLATTE
  6
Continuous
 62
     7
100
AcDbEllipse
 10
53.4215248714
 20
14.4136706359
 30
0.0
 11
-0.68749999999994
 21
1.190784930203638
 31
0.0
210
0.0
220
0.0
230
1.0
 40
0.5773502692
 41
0.0
 42
6.283185307179586
  0
SPLINE
  5
13D
330
13A
100
AcDbEntity
  8
GRUNDPLATTE
  6
Continuous
 62
     7
100
AcDbSpline
210
0.0
220
0.0
230
1.0
 70
    12
 71
     2
 72
     6
 73
     3
 74
     0
 42
0.0000000135503143
 43
0.0000000001
 40
0.0
 40
0.0
 40
0.0
 40
1.0
 40
1.0
 40
1.0
 10
53.90222023193606
 20
15.11201293783233
 30
0.0
 41
1.0
 10
54.03435074837511
 20
14.76748582098638
 30
0.0
 41
0.9642365197453955
 10
54.26665472563752
 20
14.48079387871308
 30
0.0
 41
1.0
  0
ELLIPSE
  5
13E
330
13A
100
AcDbEntity
  8
GRUNDPLATTE
  6
Continuous
 62
     7
100
AcDbEllipse
 10
53.4215248714
 20
32.3765954164
 30
0.0
 11
-0.68749999999994
 21
1.190784930203638
 31
0.0
210
0.0
220
0.0
230
1.0
 40
0.5773502692
 41
0.0
 42
6.283185307179586
  0
SPLINE
  5
13F
330
13A
100
AcDbEntity
  8
GRUNDPLATTE
  6
Continuous
 62
     7
100
AcDbSpline
210
0.0
220
0.0
230
1.0
 70
    12
 71
     2
 72
     6
 73
     3
 74
     0
 42
0.0000000135503143
 43
0.0000000001
 40
0.0
 40
0.0
 40
0.0
 40
1.0
 40
1.0
 40
1.0
 10
53.90222023203356
 20
33.07493771798914
 30
0.0
 41
1.0
 10
54.0343507484134
 20
32.73041060142415
 30
0.0
 41
0.9642365197993025
 10
54.26665472546133
 20
32.44371865934153
 30
0.0
 41
1.0
  0
ELLIPSE
  5
140
330
13A
100
AcDbEntity
  8
GRUNDPLATTE
  6
Continuous
 62
     7
100
AcDbEllipse
 10
13.1164383438
 20
55.6467479728
 30
0.0
 11
-0.6874999999999405
 21
1.190784930203638
 31
0.0
210
0.0
220
0.0
230
1.0
 40
0.5773502692
 41
0.0
 42
6.283185307179586
  0
SPLINE
  5
141
330
13A
100
AcDbEntity
  8
GRUNDPLATTE
  6
Continuous
 62
     7
100
AcDbSpline
210
0.0
220
0.0
230
1.0
 70
    12
 71
     2
 72
     6
 73
     3
 74
     0
 42
0.0000000135503143
 43
0.0000000001
 40
0.0
 40
0.0
 40
0.0
 40
1.0
 40
1.0
 40
1.0
 10
13.59713370440019
 20
56.34509027442708
 30
0.0
 41
1.0
 10
13.72926422078013
 20
56.00056315786163
 30
0.0
 41
0.9642365197996821
 10
13.9615681978284
 20
55.71387121577871
 30
0.0
 41
1.0
  0
ELLIPSE
  5
142
330
13A
100
AcDbEntity
  8
GRUNDPLATTE
  6
Continuous
 62
     7
100
AcDbEllipse
 10
13.1164383438
 20
37.6838231924
 30
0.0
 11
-0.6874999999999387
 21
1.190784930203639
 31
0.0
210
0.0
220
0.0
230
0.9999999999999997
 40
0.5773502692
 41
0.0
 42
6.283185307179586
  0
SPLINE
  5
143
330
13A
100
AcDbEntity
  8
GRUNDPLATTE
  6
Continuous
 62
     7
100
AcDbSpline
210
0.0
220
0.0
230
1.0
 70
    12
 71
     2
 72
     6
 73
     3
 74
     0
 42
0.0000000135503143
 43
0.0000000001
 40
0.0
 40
0.0
 40
0.0
 40
1.0
 40
1.0
 40
1.0
 10
13.59713370440016
 20
38.38216549401613
 30
0.0
 41
1.0
 10
13.72926422078011
 20
38.03763837745063
 30
0.0
 41
0.9642365197998881
 10
13.96156819782844
 20
37.75094643536766
 30
0.0
 41
1.0
  0
ELLIPSE
  5
144
330
13A
100
AcDbEntity
  8
GRUNDPLATTE
  6
Continuous
 62
     7
100
AcDbEllipse
 10
47.4111172313
 20
36.6632024662
 30
0.0
 11
-0.4052499999999659
 21
0.7019135897673062
 31
0.0
210
0.0
220
0.0
230
1.0
 40
0.5773502692
 41
0.0
 42
6.283185307179586
  0
ELLIPSE
  5
145
330
13A
100
AcDbEntity
  8
GRUNDPLATTE
  6
Continuous
 62
     7
100
AcDbEllipse
 10
40.3400494194
 20
40.7456853709
 30
0.0
 11
-0.4052499999999659
 21
0.7019135897673062
 31
0.0
210
0.0
220
0.0
230
1.0
 40
0.5773502692
 41
0.0
 42
6.283185307179586
  0
ELLIPSE
  5
146
330
13A
100
AcDbEntity
  8
GRUNDPLATTE
  6
Continuous
 62
     7
100
AcDbEllipse
 10
27.9656807487
 20
38.0920714828
 30
0.0
 11
1.249999999999893
 21
-2.165063509461158
 31
0.0
210
0.0
220
0.0
230
1.0
 40
0.5773502692
 41
0.0
 42
6.283185307179586
  0
SPLINE
  5
147
330
13A
100
AcDbEntity
  8
GRUNDPLATTE
  6
Continuous
 62
     7
100
AcDbSpline
210
0.0
220
0.0
230
1.0
 70
    12
 71
     2
 72
     8
 73
     5
 74
     0
 42
0.0000000018191861
 43
0.0000000001
 40
0.0
 40
0.0
 40
0.0
 40
0.5
 40
0.5
 40
1.0
 40
1.0
 40
1.0
 10
28.07367587750433
 20
39.74213573982286
 30
0.0
 41
1.0
 10
27.21937697343686
 20
39.24890603759115
 30
0.0
 41
0.6269505010338766
 10
28.23661555140362
 20
37.90893766438597
 30
0.0
 41
1.0
 10
29.25385412937039
 20
36.56896929118079
 30
0.0
 41
0.6269505010338845
 10
29.67304726021818
 20
37.63534671680959
 30
0.0
 41
1.0
  0
SPLINE
  5
148
330
13A
100
AcDbEntity
  8
GRUNDPLATTE
  6
Continuous
 62
     7
100
AcDbSpline
210
0.0
220
0.0
230
1.0
 70
    12
 71
     2
 72
     6
 73
     3
 74
     0
 42
0.0000000266186738
 43
0.0000000001
 40
0.0
 40
0.0
 40
0.0
 40
1.0
 40
1.0
 40
1.0
 10
28.42382875451597
 20
39.79905663843861
 30
0.0
 41
1.0
 10
28.22419132722878
 20
39.82903587523845
 30
0.0
 41
0.9768629764710773
 10
28.07367587750433
 20
39.74213573982286
 30
0.0
 41
1.0
  0
ELLIPSE
  5
149
330
13A
100
AcDbEntity
  8
GRUNDPLATTE
  6
Continuous
 62
     7
100
AcDbEllipse
 10
13.8235451249
 20
46.2570372921
 30
0.0
 11
1.249999999999894
 21
-2.165063509461159
 31
0.0
210
0.0
220
0.0
230
1.0
 40
0.5773502692
 41
0.0
 42
6.283185307179586
  0
SPLINE
  5
14A
330
13A
100
AcDbEntity
  8
GRUNDPLATTE
  6
Continuous
 62
     7
100
AcDbSpline
210
0.0
220
0.0
230
1.0
 70
    12
 71
     2
 72
     8
 73
     5
 74
     0
 42
0.0000000018191861
 43
0.0000000001
 40
0.0
 40
0.0
 40
0.0
 40
0.5
 40
0.5
 40
1.0
 40
1.0
 40
1.0
 10
13.93154025377338
 20
47.90710154909917
 30
0.0
 41
1.0
 10
13.07724134971038
 20
47.41387184687006
 30
0.0
 41
0.6269505010358766
 10
14.09447992766848
 20
46.07390347366781
 30
0.0
 41
1.0
 10
15.11171850562659
 20
44.73393510046557
 30
0.0
 41
0.6269505010358822
 10
15.53091163648378
 20
45.80031252607714
 30
0.0
 41
1.0
  0
SPLINE
  5
14B
330
13A
100
AcDbEntity
  8
GRUNDPLATTE
  6
Continuous
 62
     7
100
AcDbSpline
210
0.0
220
0.0
230
1.0
 70
    12
 71
     2
 72
     6
 73
     3
 74
     0
 42
0.0000000266186738
 43
0.0000000001
 40
0.0
 40
0.0
 40
0.0
 40
1.0
 40
1.0
 40
1.0
 10
14.28169313077736
 20
47.96402244771608
 30
0.0
 41
1.0
 10
14.08205570349481
 20
47.99400168451303
 30
0.0
 41
0.9768629764724122
 10
13.93154025377338
 20
47.90710154909917
 30
0.0
 41
1.0
  0
LINE
  5
14C
330
13A
100
AcDbEntity
  8
GRUNDPLATTE
  6
Continuous
 62
     7
100
AcDbLine
 10
10.9951180002
 20
35.6425817401
 30
0.0
 11
55.5428452149
 21
9.9229394408
 31
0.0
  0
LINE
  5
14D
330
13A
100
AcDbEntity
  8
GRUNDPLATTE
  6
Continuous
 62
     7
100
AcDbLine
 10
55.5428452149
 20
34.4178368687
 30
0.0
 11
10.9951180002
 21
60.1374791679
 31
0.0
  0
LINE
  5
14E
330
13A
100
AcDbEntity
  8
GRUNDPLATTE
  6
Continuous
 62
     7
100
AcDbLine
 10
10.288011219
 20
59.7292308774
 30
0.0
 11
10.288011219
 21
36.8673266115
 31
0.0
  0
LINE
  5
14F
330
13A
100
AcDbEntity
  8
GRUNDPLATTE
  6
Continuous
 62
     7
100
AcDbLine
 10
56.2499519961
 20
10.3311877313
 30
0.0
 11
56.2499519961
 21
33.1930919973
 31
0.0
  0
LINE
  5
150
330
13A
100
AcDbEntity
  8
GRUNDPLATTE
  6
Continuous
 62
     7
100
AcDbLine
 10
56.2499519961
 20
33.1930919973
 30
0.0
 11
55.5428452149
 21
34.4178368687
 31
0.0
  0
LINE
  5
151
330
13A
100
AcDbEntity
  8
GRUNDPLATTE
  6
Continuous
 62
     7
100
AcDbLine
 10
10.9951180002
 20
60.1374791679
 30
0.0
 11
10.288011219
 21
59.7292308774
 31
0.0
  0
LINE
  5
152
330
13A
100
AcDbEntity
  8
GRUNDPLATTE
  6
Continuous
 62
     7
100
AcDbLine
 10
10.288011219
 20
36.8673266115
 30
0.0
 11
10.9951180002
 21
35.6425817401
 31
0.0
  0
LINE
  5
153
330
13A
100
AcDbEntity
  8
GRUNDPLATTE
  6
Continuous
 62
     7
100
AcDbLine
 10
55.5428452149
 20
9.9229394408
 30
0.0
 11
56.2499519961
 21
10.3311877313
 31
0.0
  0
LINE
  5
154
330
13A
100
AcDbEntity
  8
GRUNDPLATTE
  6
Continuous
 62
     7
100
AcDbLine
 10
58.3712723397
 20
11.5559326027
 30
0.0
 11
58.3712723397
 21
34.4178368687
 31
0.0
  0
LINE
  5
155
330
13A
100
AcDbEntity
  8
GRUNDPLATTE
  6
Continuous
 62
     7
100
AcDbLine
 10
58.3712723397
 20
34.4178368687
 30
0.0
 11
56.2499519961
 21
33.1930919973
 31
0.0
  0
LINE
  5
156
330
13A
100
AcDbEntity
  8
GRUNDPLATTE
  6
Continuous
 62
     7
100
AcDbLine
 10
56.2499519961
 20
10.3311877313
 30
0.0
 11
58.3712723397
 21
11.5559326027
 31
0.0
  0
LINE
  5
157
330
13A
100
AcDbEntity
  8
GRUNDPLATTE
  6
Continuous
 62
     7
100
AcDbLine
 10
57.6641655585
 20
35.6425817401
 30
0.0
 11
13.1164383438
 21
61.3622240393
 31
0.0
  0
LINE
  5
158
330
13A
100
AcDbEntity
  8
GRUNDPLATTE
  6
Continuous
 62
     7
100
AcDbLine
 10
57.6641655585
 20
35.6425817401
 30
0.0
 11
58.3712723397
 21
34.4178368687
 31
0.0
  0
LINE
  5
159
330
13A
100
AcDbEntity
  8
GRUNDPLATTE
  6
Continuous
 62
     7
100
AcDbLine
 10
55.5428452149
 20
34.4178368687
 30
0.0
 11
57.6641655585
 21
35.6425817401
 31
0.0
  0
LINE
  5
15A
330
13A
100
AcDbEntity
  8
GRUNDPLATTE
  6
Continuous
 62
     7
100
AcDbLine
 10
13.1164383438
 20
61.3622240393
 30
0.0
 11
10.9951180002
 21
60.1374791679
 31
0.0
  0
ELLIPSE
  5
15B
330
13A
100
AcDbEntity
  8
GRUNDPLATTE
  6
Continuous
 62
     7
100
AcDbEllipse
 10
35.3903019511
 20
38.7044439185
 30
0.0
 11
0.9374999999999195
 21
-1.623797632095866
 31
0.0
210
0.0
220
0.0
230
1.0
 40
0.5773502692
 41
0.0
 42
6.283185307179586
  0
SPLINE
  5
15C
330
13A
100
AcDbEntity
  8
GRUNDPLATTE
  6
Continuous
 62
     7
100
AcDbSpline
210
0.0
220
0.0
230
1.0
 70
    12
 71
     2
 72
     8
 73
     5
 74
     0
 42
0.0000000032022225
 43
0.0000000001
 40
0.0
 40
0.0
 40
0.0
 40
0.5
 40
0.5
 40
1.0
 40
1.0
 40
1.0
 10
35.6900864018444
 20
39.8590200094862
 30
0.0
 41
1.0
 10
35.19986050761916
 20
39.57598795749156
 30
0.0
 41
0.6550516064962003
 10
35.75465307163314
 20
38.77561156810454
 30
0.0
 41
1.0
 10
36.30944563564712
 20
37.97523517871752
 30
0.0
 41
0.6550516064962283
 10
36.64231595277684
 20
38.48527764291812
 30
0.0
 41
1.0
  0
SPLINE
  5
15D
330
13A
100
AcDbEntity
  8
GRUNDPLATTE
  6
Continuous
 62
     7
100
AcDbSpline
210
0.0
220
0.0
230
1.0
 70
    12
 71
     2
 72
     6
 73
     3
 74
     0
 42
0.0000000685161385
 43
0.0000000001
 40
0.0
 40
0.0
 40
0.0
 40
1.0
 40
1.0
 40
1.0
 10
35.82650538960417
 20
39.89830298767826
 30
0.0
 41
1.0
 10
35.75097305437608
 20
39.89417293471541
 30
0.0
 41
0.9898932096800986
 10
35.6900864018444
 20
39.8590200094862
 30
0.0
 41
1.0
  0
ELLIPSE
  5
15E
330
13A
100
AcDbEntity
  8
GRUNDPLATTE
  6
Continuous
 62
     7
100
AcDbEllipse
 10
52.3608646996
 20
28.9064849474
 30
0.0
 11
0.9374999999999222
 21
-1.623797632095872
 31
0.0
210
0.0
220
0.0
230
1.0
 40
0.5773502692
 41
0.0
 42
6.283185307179586
  0
SPLINE
  5
15F
330
13A
100
AcDbEntity
  8
GRUNDPLATTE
  6
Continuous
 62
     7
100
AcDbSpline
210
0.0
220
0.0
230
1.0
 70
    12
 71
     2
 72
     8
 73
     5
 74
     0
 42
0.0000000032022225
 43
0.0000000001
 40
0.0
 40
0.0
 40
0.0
 40
0.5
 40
0.5
 40
1.0
 40
1.0
 40
1.0
 10
52.66064915032155
 20
30.06106103835461
 30
0.0
 41
1.0
 10
52.17042325614456
 20
29.77802898638783
 30
0.0
 41
0.6550516065330146
 10
52.72521582006343
 20
28.97765259704056
 30
0.0
 41
1.0
 10
53.28000838398229
 20
28.17727620769328
 30
0.0
 41
0.6550516065330181
 10
53.61287870119776
 20
28.68731867170037
 30
0.0
 41
1.0
  0
SPLINE
  5
160
330
13A
100
AcDbEntity
  8
GRUNDPLATTE
  6
Continuous
 62
     7
100
AcDbSpline
210
0.0
220
0.0
230
1.0
 70
    12
 71
     2
 72
     6
 73
     3
 74
     0
 42
0.0000000685161386
 43
0.0000000001
 40
0.0
 40
0.0
 40
0.0
 40
1.0
 40
1.0
 40
1.0
 10
52.79706813798859
 20
30.10034401654161
 30
0.0
 41
1.0
 10
52.72153580281509
 20
30.09621396356181
 30
0.0
 41
0.9898932096931743
 10
52.66064915032156
 20
30.06106103835462
 30
0.0
 41
1.0
  0
ELLIPSE
  5
161
330
13A
100
AcDbEntity
  8
GRUNDPLATTE
  6
Continuous
 62
     7
100
AcDbEllipse
 10
49.5324375749
 20
16.250787943
 30
0.0
 11
0.9374999999999215
 21
-1.623797632095872
 31
0.0
210
0.0
220
0.0
230
1.0
 40
0.5773502692
 41
0.0
 42
6.283185307179586
  0
SPLINE
  5
162
330
13A
100
AcDbEntity
  8
GRUNDPLATTE
  6
Continuous
 62
     7
100
AcDbSpline
210
0.0
220
0.0
230
1.0
 70
    12
 71
     2
 72
     8
 73
     5
 74
     0
 42
0.0000000032022225
 43
0.0000000001
 40
0.0
 40
0.0
 40
0.0
 40
0.5
 40
0.5
 40
1.0
 40
1.0
 40
1.0
 10
49.83222202557536
 20
17.40536403397384
 30
0.0
 41
1.0
 10
49.34199613144501
 20
17.12233198203398
 30
0.0
 41
0.6550516065686399
 10
49.89678869527194
 20
16.32195559272513
 30
0.0
 41
1.0
 10
50.45158125909889
 20
15.52157920341627
 30
0.0
 41
0.6550516065686011
 10
50.78445157639722
 20
16.03162166723633
 30
0.0
 41
1.0
  0
SPLINE
  5
163
330
13A
100
AcDbEntity
  8
GRUNDPLATTE
  6
Continuous
 62
     7
100
AcDbSpline
210
0.0
220
0.0
230
1.0
 70
    12
 71
     2
 72
     6
 73
     3
 74
     0
 42
0.0000000685161386
 43
0.0000000001
 40
0.0
 40
0.0
 40
0.0
 40
1.0
 40
1.0
 40
1.0
 10
49.96864101314758
 20
17.44464701215566
 30
0.0
 41
1.0
 10
49.8931086780299
 20
17.44051695915853
 30
0.0
 41
0.9898932097052174
 10
49.83222202557536
 20
17.40536403397385
 30
0.0
 41
1.0
  0
ELLIPSE
  5
164
330
13A
100
AcDbEntity
  8
GRUNDPLATTE
  6
Continuous
 62
     7
100
AcDbEllipse
 10
35.3903019511
 20
24.4157537523
 30
0.0
 11
0.9374999999999217
 21
-1.623797632095869
 31
0.0
210
0.0
220
0.0
230
1.0
 40
0.5773502692
 41
0.0
 42
6.283185307179586
  0
SPLINE
  5
165
330
13A
100
AcDbEntity
  8
GRUNDPLATTE
  6
Continuous
 62
     7
100
AcDbSpline
210
0.0
220
0.0
230
1.0
 70
    12
 71
     2
 72
     8
 73
     5
 74
     0
 42
0.0000000032022225
 43
0.0000000001
 40
0.0
 40
0.0
 40
0.0
 40
0.5
 40
0.5
 40
1.0
 40
1.0
 40
1.0
 10
35.6900864018444
 20
25.57032984325017
 30
0.0
 41
1.0
 10
35.19986050764039
 20
25.2872977912678
 30
0.0
 41
0.6550516065123981
 10
35.75465307161251
 20
24.48692140189827
 30
0.0
 41
1.0
 10
36.30944563558462
 20
23.68654501252874
 30
0.0
 41
0.6550516065124208
 10
36.64231595275209
 20
24.19658747664417
 30
0.0
 41
1.0
  0
SPLINE
  5
166
330
13A
100
AcDbEntity
  8
GRUNDPLATTE
  6
Continuous
 62
     7
100
AcDbSpline
210
0.0
220
0.0
230
1.0
 70
    12
 71
     2
 72
     6
 73
     3
 74
     0
 42
0.0000000685161385
 43
0.0000000001
 40
0.0
 40
0.0
 40
0.0
 40
1.0
 40
1.0
 40
1.0
 10
35.82650538956381
 20
25.60961282144003
 30
0.0
 41
1.0
 10
35.75097305435949
 20
25.60548276846981
 30
0.0
 41
0.9898932096851321
 10
35.6900864018444
 20
25.57032984325017
 30
0.0
 41
1.0
  0
ENDBLK
  5
168
330
13A
100
AcDbEntity
  8
0
100
AcDbBlockEnd
  0
BLOCK
  5
172
330
16A
100
AcDbEntity
  8
0
100
AcDbBlockBegin
  2
DMBLK11
 70
     0
 71
     0
 10
0.0
 20
0.0
 30
0.0
  3
DMBLK11
  1

  0
HATCH
  5
16B
330
16A
100
AcDbEntity
  8
Kontur
  6
Continuous
 62
   136
370
    20
100
AcDbHatch
 10
0.0
 20
0.0
 30
0.0
210
0.0
220
0.0
230
1.0
  2
SOLID
 70
     1
 71
     0
 91
        1
 92
        1
 93
        3
 72
     1
 10
46.38126371534043
 20
170.5472116325292
 11
46.38126371534043
 21
169.3805449298514
 72
     1
 10
46.38126371534043
 20
169.3805449298514
 11
49.88126382337385
 21
169.9638782811903
 72
     1
 10
49.88126382337385
 20
169.9638782811903
 11
46.38126371534043
 21
170.5472116325292
 97
        0
 75
     0
 76
     1
 98
        0
  0
HATCH
  5
16C
330
16A
100
AcDbEntity
  8
Kontur
  6
Continuous
 62
   136
370
    20
100
AcDbHatch
 10
0.0
 20
0.0
 30
0.0
210
0.0
220
0.0
230
1.0
  2
SOLID
 70
     1
 71
     0
 91
        1
 92
        1
 93
        3
 72
     1
 10
55.38126393140728
 20
170.5472116325292
 11
51.88126382337386
 21
169.9638782811903
 72
     1
 10
51.88126382337386
 20
169.9638782811903
 11
55.38126393140728
 21
169.3805449298514
 72
     1
 10
55.38126393140728
 20
169.3805449298514
 11
55.38126393140728
 21
170.5472116325292
 97
        0
 75
     0
 76
     1
 98
        0
  0
LINE
  5
16D
330
16A
100
AcDbEntity
  8
Kontur
  6
Continuous
 62
   136
370
    20
100
AcDbLine
 10
49.8812638234
 20
159.36456684
 30
0.0
 11
49.8812638234
 21
171.7138783352
 31
0.0
  0
LINE
  5
16E
330
16A
100
AcDbEntity
  8
Kontur
  6
Continuous
 62
   136
370
    20
100
AcDbLine
 10
51.8812638234
 20
161.36456684
 30
0.0
 11
51.8812638234
 21
171.7138783352
 31
0.0
  0
LINE
  5
16F
330
16A
100
AcDbEntity
  8
Kontur
  6
Continuous
 62
   136
370
    20
100
AcDbLine
 10
31.1567757289
 20
169.9638782812
 30
0.0
 11
58.8812634359
 21
169.9638782812
 31
0.0
  0
TEXT
  5
170
330
16A
100
AcDbEntity
  8
Kontur
  6
Continuous
 62
   136
370
    20
100
AcDbText
 10
31.8567756898
 20
170.6638782812
 30
0.0
 40
3.5
  1
2
  7
SEACAD_seiso_ttf
 11
31.8567756898
 21
174.1638782812
 31
0.0
100
AcDbText
 73
     3
  0
TEXT
  5
171
330
16A
100
AcDbEntity
  8
Kontur
  6
Continuous
 62
   136
370
    20
100
AcDbText
 10
34.7045029625
 20
170.6638782812
 30
0.0
 40
3.5
  1
x45°
  7
SEACAD_seiso_ttf
 11
34.7045029625
 21
174.1638782812
 31
0.0
100
AcDbText
 73
     3
  0
ENDBLK
  5
173
330
16A
100
AcDbEntity
  8
0
100
AcDbBlockEnd
  0
BLOCK
  5
17C
330
175
100
AcDbEntity
  8
0
100
AcDbBlockBegin
  2
DMBLK12
 70
     0
 71
     0
 10
0.0
 20
0.0
 30
0.0
  3
DMBLK12
  1

  0
HATCH
  5
176
330
175
100
AcDbEntity
  8
Kontur
  6
Continuous
 62
   136
370
    20
100
AcDbHatch
 10
0.0
 20
0.0
 30
0.0
210
0.0
220
0.0
230
1.0
  2
SOLID
 70
     1
 71
     0
 91
        1
 92
        1
 93
        3
 72
     1
 10
191.5593241246429
 20
97.86456673197372
 11
190.975990773304
 21
101.3645668400071
 72
     1
 10
190.975990773304
 20
101.3645668400071
 11
190.3926574219651
 21
97.86456673197372
 72
     1
 10
190.3926574219651
 20
97.86456673197372
 11
191.5593241246429
 21
97.86456673197372
 97
        0
 75
     0
 76
     1
 98
        0
  0
HATCH
  5
177
330
175
100
AcDbEntity
  8
Kontur
  6
Continuous
 62
   136
370
    20
100
AcDbHatch
 10
0.0
 20
0.0
 30
0.0
210
0.0
220
0.0
230
1.0
  2
SOLID
 70
     1
 71
     0
 91
        1
 92
        1
 93
        3
 72
     1
 10
191.5593241246429
 20
111.8645669480405
 11
190.3926574219651
 21
111.8645669480405
 72
     1
 10
190.3926574219651
 20
111.8645669480405
 11
190.975990773304
 21
108.3645668400071
 72
     1
 10
190.975990773304
 20
108.3645668400071
 11
191.5593241246429
 21
111.8645669480405
 97
        0
 75
     0
 76
     1
 98
        0
  0
LINE
  5
178
330
175
100
AcDbEntity
  8
Kontur
  6
Continuous
 62
   136
370
    20
100
AcDbLine
 10
177.8812638234
 20
101.36456684
 30
0.0
 11
192.7259908273
 21
101.36456684
 31
0.0
  0
LINE
  5
179
330
175
100
AcDbEntity
  8
Kontur
  6
Continuous
 62
   136
370
    20
100
AcDbLine
 10
160.8812638234
 20
108.36456684
 30
0.0
 11
192.7259908273
 21
108.36456684
 31
0.0
  0
LINE
  5
17A
330
175
100
AcDbEntity
  8
Kontur
  6
Continuous
 62
   136
370
    20
100
AcDbLine
 10
190.9759907733
 20
94.3645666239
 30
0.0
 11
190.9759907733
 21
115.3645672721
 31
0.0
  0
TEXT
  5
17B
330
175
100
AcDbEntity
  8
Kontur
  6
Continuous
 62
   136
370
    20
100
AcDbText
 10
190.2759907733
 20
103.7509305844
 30
0.0
 40
3.5
  1
7
 50
90.0
  7
SEACAD_seiso_ttf
 11
186.7759907733
 21
103.7509305844
 31
0.0
100
AcDbText
 73
     3
  0
ENDBLK
  5
17D
330
175
100
AcDbEntity
  8
0
100
AcDbBlockEnd
  0
BLOCK
  5
186
330
17F
100
AcDbEntity
  8
0
100
AcDbBlockBegin
  2
DMBLK13
 70
     0
 71
     0
 10
0.0
 20
0.0
 30
0.0
  3
DMBLK13
  1

  0
HATCH
  5
180
330
17F
100
AcDbEntity
  8
Kontur
  6
Continuous
 62
   136
370
    20
100
AcDbHatch
 10
0.0
 20
0.0
 30
0.0
210
0.0
220
0.0
230
1.0
  2
SOLID
 70
     1
 71
     0
 91
        1
 92
        1
 93
        3
 72
     1
 10
191.5593250485149
 20
111.8645669480405
 11
190.3926583458372
 21
111.8645669480405
 72
     1
 10
190.3926583458372
 20
111.8645669480405
 11
190.9759916971761
 21
108.3645668400071
 72
     1
 10
190.9759916971761
 20
108.3645668400071
 11
191.5593250485149
 21
111.8645669480405
 97
        0
 75
     0
 76
     1
 98
        0
  0
HATCH
  5
181
330
17F
100
AcDbEntity
  8
Kontur
  6
Continuous
 62
   136
370
    20
100
AcDbHatch
 10
0.0
 20
0.0
 30
0.0
210
0.0
220
0.0
230
1.0
  2
SOLID
 70
     1
 71
     0
 91
        1
 92
        1
 93
        3
 72
     1
 10
191.5593250485149
 20
139.8645668809853
 11
190.9759916971761
 21
143.3645669890187
 72
     1
 10
190.9759916971761
 20
143.3645669890187
 11
190.3926583458372
 21
139.8645668809853
 72
     1
 10
190.3926583458372
 20
139.8645668809853
 11
191.5593250485149
 21
139.8645668809853
 97
        0
 75
     0
 76
     1
 98
        0
  0
LINE
  5
182
330
17F
100
AcDbEntity
  8
Kontur
  6
Continuous
 62
   136
370
    20
100
AcDbLine
 10
160.8812638234
 20
108.36456684
 30
0.0
 11
192.7259917512
 21
108.36456684
 31
0.0
  0
LINE
  5
183
330
17F
100
AcDbEntity
  8
Kontur
  6
Continuous
 62
   136
370
    20
100
AcDbLine
 10
168.8812638234
 20
143.36456684
 30
0.0
 11
192.7259917512
 21
143.36456684
 31
0.0
  0
LINE
  5
184
330
17F
100
AcDbEntity
  8
Kontur
  6
Continuous
 62
   136
370
    20
100
AcDbLine
 10
190.9759916972
 20
108.36456684
 30
0.0
 11
190.9759916972
 21
143.364566989
 31
0.0
  0
TEXT
  5
185
330
17F
100
AcDbEntity
  8
Kontur
  6
Continuous
 62
   136
370
    20
100
AcDbText
 10
190.2759916972
 20
123.9554760054
 30
0.0
 40
3.5
  1
35
 50
90.0
  7
SEACAD_seiso_ttf
 11
186.7759916972
 21
123.9554760054
 31
0.0
100
AcDbText
 73
     3
  0
ENDBLK
  5
187
330
17F
100
AcDbEntity
  8
0
100
AcDbBlockEnd
  0
BLOCK
  5
190
330
189
100
AcDbEntity
  8
0
100
AcDbBlockBegin
  2
DMBLK14
 70
     0
 71
     0
 10
0.0
 20
0.0
 30
0.0
  3
DMBLK14
  1

  0
HATCH
  5
18A
330
189
100
AcDbEntity
  8
Kontur
  6
Continuous
 62
   136
370
    20
100
AcDbHatch
 10
0.0
 20
0.0
 30
0.0
210
0.0
220
0.0
230
1.0
  2
SOLID
 70
     1
 71
     0
 91
        1
 92
        1
 93
        3
 72
     1
 10
124.3812639314073
 20
133.3834660044802
 11
124.3812639314073
 21
134.550132707158
 72
     1
 10
124.3812639314073
 20
134.550132707158
 11
120.8812638233739
 21
133.9667993558191
 72
     1
 10
120.8812638233739
 20
133.9667993558191
 11
124.3812639314073
 21
133.3834660044802
 97
        0
 75
     0
 76
     1
 98
        0
  0
HATCH
  5
18B
330
189
100
AcDbEntity
  8
Kontur
  6
Continuous
 62
   136
370
    20
100
AcDbHatch
 10
0.0
 20
0.0
 30
0.0
210
0.0
220
0.0
230
1.0
  2
SOLID
 70
     1
 71
     0
 91
        1
 92
        1
 93
        3
 72
     1
 10
165.381264132573
 20
133.3834660044802
 11
168.8812642406064
 21
133.9667993558191
 72
     1
 10
168.8812642406064
 20
133.9667993558191
 11
165.381264132573
 21
134.550132707158
 72
     1
 10
165.381264132573
 20
134.550132707158
 11
165.381264132573
 21
133.3834660044802
 97
        0
 75
     0
 76
     1
 98
        0
  0
LINE
  5
18C
330
189
100
AcDbEntity
  8
Kontur
  6
Continuous
 62
   136
370
    20
100
AcDbLine
 10
120.8812638234
 20
143.36456684
 30
0.0
 11
120.8812638234
 21
132.2167993018
 31
0.0
  0
LINE
  5
18D
330
189
100
AcDbEntity
  8
Kontur
  6
Continuous
 62
   136
370
    20
100
AcDbLine
 10
168.8812638234
 20
143.36456684
 30
0.0
 11
168.8812638234
 21
132.2167993018
 31
0.0
  0
LINE
  5
18E
330
189
100
AcDbEntity
  8
Kontur
  6
Continuous
 62
   136
370
    20
100
AcDbLine
 10
120.8812638234
 20
133.9667993558
 30
0.0
 11
168.8812642406
 21
133.9667993558
 31
0.0
  0
TEXT
  5
18F
330
189
100
AcDbEntity
  8
Kontur
  6
Continuous
 62
   136
370
    20
100
AcDbText
 10
142.7335367593
 20
134.6667993558
 30
0.0
 40
3.5
  1
48
  7
SEACAD_seiso_ttf
 11
142.7335367593
 21
138.1667993558
 31
0.0
100
AcDbText
 73
     3
  0
ENDBLK
  5
191
330
189
100
AcDbEntity
  8
0
100
AcDbBlockEnd
  0
BLOCK
  5
19A
330
193
100
AcDbEntity
  8
0
100
AcDbBlockBegin
  2
DMBLK15
 70
     0
 71
     0
 10
0.0
 20
0.0
 30
0.0
  3
DMBLK15
  1

  0
HATCH
  5
194
330
193
100
AcDbEntity
  8
Kontur
  6
Continuous
 62
   136
370
    20
100
AcDbHatch
 10
0.0
 20
0.0
 30
0.0
210
0.0
220
0.0
230
1.0
  2
SOLID
 70
     1
 71
     0
 91
        1
 92
        1
 93
        3
 72
     1
 10
124.3812639314073
 20
126.2424728576334
 11
120.8812638233739
 21
125.6591395062945
 72
     1
 10
120.8812638233739
 20
125.6591395062945
 11
124.3812639314073
 21
125.0758061549556
 72
     1
 10
124.3812639314073
 20
125.0758061549556
 11
124.3812639314073
 21
126.2424728576334
 97
        0
 75
     0
 76
     1
 98
        0
  0
HATCH
  5
195
330
193
100
AcDbEntity
  8
Kontur
  6
Continuous
 62
   136
370
    20
100
AcDbHatch
 10
0.0
 20
0.0
 30
0.0
210
0.0
220
0.0
230
1.0
  2
SOLID
 70
     1
 71
     0
 91
        1
 92
        1
 93
        3
 72
     1
 10
157.3812628212708
 20
126.2424728576334
 11
157.3812628212708
 21
125.0758061549556
 72
     1
 10
157.3812628212708
 20
125.0758061549556
 11
160.8812629293042
 21
125.6591395062945
 72
     1
 10
160.8812629293042
 20
125.6591395062945
 11
157.3812628212708
 21
126.2424728576334
 97
        0
 75
     0
 76
     1
 98
        0
  0
LINE
  5
196
330
193
100
AcDbEntity
  8
Kontur
  6
Continuous
 62
   136
370
    20
100
AcDbLine
 10
120.8812638234
 20
108.36456684
 30
0.0
 11
120.8812638234
 21
127.4091395603
 31
0.0
  0
LINE
  5
197
330
193
100
AcDbEntity
  8
Kontur
  6
Continuous
 62
   136
370
    20
100
AcDbLine
 10
160.8812638234
 20
108.36456684
 30
0.0
 11
160.8812638234
 21
127.4091395603
 31
0.0
  0
LINE
  5
198
330
193
100
AcDbEntity
  8
Kontur
  6
Continuous
 62
   136
370
    20
100
AcDbLine
 10
120.8812638234
 20
125.6591395063
 30
0.0
 11
160.8812629293
 21
125.6591395063
 31
0.0
  0
TEXT
  5
199
330
193
100
AcDbEntity
  8
Kontur
  6
Continuous
 62
   136
370
    20
100
AcDbText
 10
138.8130815582
 20
126.3591395063
 30
0.0
 40
3.5
  1
40
  7
SEACAD_seiso_ttf
 11
138.8130815582
 21
129.8591395063
 31
0.0
100
AcDbText
 73
     3
  0
ENDBLK
  5
19B
330
193
100
AcDbEntity
  8
0
100
AcDbBlockEnd
  0
BLOCK
  5
1A4
330
19D
100
AcDbEntity
  8
0
100
AcDbBlockBegin
  2
DMBLK16
 70
     0
 71
     0
 10
0.0
 20
0.0
 30
0.0
  3
DMBLK16
  1

  0
HATCH
  5
19E
330
19D
100
AcDbEntity
  8
Kontur
  6
Continuous
 62
   136
370
    20
100
AcDbHatch
 10
0.0
 20
0.0
 30
0.0
210
0.0
220
0.0
230
1.0
  2
SOLID
 70
     1
 71
     0
 91
        1
 92
        1
 93
        3
 72
     1
 10
176.3812637153404
 20
91.84824965809707
 11
179.8812638233738
 21
92.43158300943598
 72
     1
 10
179.8812638233738
 20
92.43158300943598
 11
176.3812637153404
 21
93.01491636077489
 72
     1
 10
176.3812637153404
 20
93.01491636077489
 11
176.3812637153404
 21
91.84824965809707
 97
        0
 75
     0
 76
     1
 98
        0
  0
HATCH
  5
19F
330
19D
100
AcDbEntity
  8
Kontur
  6
Continuous
 62
   136
370
    20
100
AcDbHatch
 10
0.0
 20
0.0
 30
0.0
210
0.0
220
0.0
230
1.0
  2
SOLID
 70
     1
 71
     0
 91
        1
 92
        1
 93
        3
 72
     1
 10
124.3812635737794
 20
91.84824965809707
 11
124.3812635737794
 21
93.01491636077489
 72
     1
 10
124.3812635737794
 20
93.01491636077489
 11
120.881263465746
 21
92.43158300943598
 72
     1
 10
120.881263465746
 20
92.43158300943598
 11
124.3812635737794
 21
91.84824965809707
 97
        0
 75
     0
 76
     1
 98
        0
  0
LINE
  5
1A0
330
19D
100
AcDbEntity
  8
Kontur
  6
Continuous
 62
   136
370
    20
100
AcDbLine
 10
179.8812638234
 20
103.36456684
 30
0.0
 11
179.8812638234
 21
90.6815829554
 31
0.0
  0
LINE
  5
1A1
330
19D
100
AcDbEntity
  8
Kontur
  6
Continuous
 62
   136
370
    20
100
AcDbLine
 10
120.8812638234
 20
108.36456684
 30
0.0
 11
120.8812638234
 21
90.6815829554
 31
0.0
  0
LINE
  5
1A2
330
19D
100
AcDbEntity
  8
Kontur
  6
Continuous
 62
   136
370
    20
100
AcDbLine
 10
179.8812638234
 20
92.4315830094
 30
0.0
 11
120.8812634657
 21
92.4315830094
 31
0.0
  0
TEXT
  5
1A3
330
19D
100
AcDbEntity
  8
Kontur
  6
Continuous
 62
   136
370
    20
100
AcDbText
 10
148.3130818264
 20
93.1315830094
 30
0.0
 40
3.5
  1
59
  7
SEACAD_seiso_ttf
 11
148.3130818264
 21
96.6315830094
 31
0.0
100
AcDbText
 73
     3
  0
ENDBLK
  5
1A5
330
19D
100
AcDbEntity
  8
0
100
AcDbBlockEnd
  0
BLOCK
  5
1D4
330
1A7
100
AcDbEntity
  8
0
100
AcDbBlockBegin
  2
SE7
 70
     0
 71
     0
 10
0.0
 20
0.0
 30
0.0
  3
SE7
  1

  0
LINE
  5
1A9
330
1A7
100
AcDbEntity
  8
GRUNDPLATTE
  6
Continuous
 62
     7
100
AcDbLine
 10
254.1018795599
 20
158.36456684
 30
0.0
 11
256.3518795599
 21
156.11456684
 31
0.0
  0
LINE
  5
1AA
330
1A7
100
AcDbEntity
  8
GRUNDPLATTE
  6
Continuous
 62
     7
100
AcDbLine
 10
256.3518795599
 20
150.61456684
 30
0.0
 11
254.1018795599
 21
148.36456684
 31
0.0
  0
LINE
  5
1AB
330
1A7
100
AcDbEntity
  8
GRUNDPLATTE
  6
Continuous
 62
     7
100
AcDbLine
 10
260.1018795599
 20
126.36456684
 30
0.0
 11
257.8518795599
 21
128.61456684
 31
0.0
  0
LINE
  5
1AC
330
1A7
100
AcDbEntity
  8
GRUNDPLATTE
  6
Continuous
 62
     7
100
AcDbLine
 10
257.8518795599
 20
134.11456684
 30
0.0
 11
260.1018795599
 21
136.36456684
 31
0.0
  0
LINE
  5
1AD
330
1A7
100
AcDbEntity
  8
GRUNDPLATTE
  6
Continuous
 62
     7
100
AcDbLine
 10
260.1018795599
 20
104.61456684
 30
0.0
 11
258.0518795599
 21
106.66456684
 31
0.0
  0
LINE
  5
1AE
330
1A7
100
AcDbEntity
  8
GRUNDPLATTE
  6
Continuous
 62
     7
100
AcDbLine
 10
258.0518795599
 20
110.06456684
 30
0.0
 11
260.1018795599
 21
112.11456684
 31
0.0
  0
LINE
  5
1AF
330
1A7
100
AcDbEntity
  8
GRUNDPLATTE
  6
Continuous
 62
     7
100
AcDbLine
 10
260.1018795599
 20
150.61456684
 30
0.0
 11
260.1018795599
 21
156.11456684
 31
0.0
  0
LINE
  5
1B0
330
1A7
100
AcDbEntity
  8
GRUNDPLATTE
  6
Continuous
 62
     7
100
AcDbLine
 10
254.1018795599
 20
148.36456684
 30
0.0
 11
254.1018795599
 21
158.36456684
 31
0.0
  0
LINE
  5
1B1
330
1A7
100
AcDbEntity
  8
GRUNDPLATTE
  6
Continuous
 62
     7
100
AcDbLine
 10
256.3518795599
 20
156.11456684
 30
0.0
 11
256.3518795599
 21
150.61456684
 31
0.0
  0
LINE
  5
1B2
330
1A7
100
AcDbEntity
  8
GRUNDPLATTE
  6
Continuous
 62
     7
100
AcDbLine
 10
254.1018795599
 20
128.61456684
 30
0.0
 11
254.1018795599
 21
134.11456684
 31
0.0
  0
LINE
  5
1B3
330
1A7
100
AcDbEntity
  8
GRUNDPLATTE
  6
Continuous
 62
     7
100
AcDbLine
 10
260.1018795599
 20
136.36456684
 30
0.0
 11
260.1018795599
 21
126.36456684
 31
0.0
  0
LINE
  5
1B4
330
1A7
100
AcDbEntity
  8
GRUNDPLATTE
  6
Continuous
 62
     7
100
AcDbLine
 10
257.8518795599
 20
128.61456684
 30
0.0
 11
257.8518795599
 21
134.11456684
 31
0.0
  0
LINE
  5
1B5
330
1A7
100
AcDbEntity
  8
GRUNDPLATTE
  6
Continuous
 62
     7
100
AcDbLine
 10
254.1018795599
 20
106.66456684
 30
0.0
 11
254.1018795599
 21
110.06456684
 31
0.0
  0
LINE
  5
1B6
330
1A7
100
AcDbEntity
  8
GRUNDPLATTE
  6
Continuous
 62
     7
100
AcDbLine
 10
260.1018795599
 20
112.11456684
 30
0.0
 11
260.1018795599
 21
104.61456684
 31
0.0
  0
LINE
  5
1B7
330
1A7
100
AcDbEntity
  8
GRUNDPLATTE
  6
Continuous
 62
     7
100
AcDbLine
 10
258.0518795599
 20
106.66456684
 30
0.0
 11
258.0518795599
 21
110.06456684
 31
0.0
  0
LINE
  5
1B8
330
1A7
100
AcDbEntity
  8
GRUNDPLATTE
  6
Continuous
 62
     7
100
AcDbLine
 10
254.1018795599
 20
161.36456684
 30
0.0
 11
260.1018795599
 21
161.36456684
 31
0.0
  0
LINE
  5
1B9
330
1A7
100
AcDbEntity
  8
GRUNDPLATTE
  6
Continuous
 62
     7
100
AcDbLine
 10
254.1018795599
 20
161.36456684
 30
0.0
 11
254.1018795599
 21
158.36456684
 31
0.0
  0
LINE
  5
1BA
330
1A7
100
AcDbEntity
  8
GRUNDPLATTE
  6
Continuous
 62
     7
100
AcDbLine
 10
260.1018795599
 20
161.36456684
 30
0.0
 11
260.1018795599
 21
156.11456684
 31
0.0
  0
LINE
  5
1BB
330
1A7
100
AcDbEntity
  8
GRUNDPLATTE
  6
Continuous
 62
     7
100
AcDbLine
 10
256.3518795599
 20
156.11456684
 30
0.0
 11
260.1018795599
 21
156.11456684
 31
0.0
  0
LINE
  5
1BC
330
1A7
100
AcDbEntity
  8
GRUNDPLATTE
  6
Continuous
 62
     7
100
AcDbLine
 10
254.1018795599
 20
148.36456684
 30
0.0
 11
254.1018795599
 21
143.1925910492
 31
0.0
  0
LINE
  5
1BD
330
1A7
100
AcDbEntity
  8
GRUNDPLATTE
  6
Continuous
 62
     7
100
AcDbLine
 10
260.1018795599
 20
150.61456684
 30
0.0
 11
260.1018795599
 21
143.1925910492
 31
0.0
  0
LINE
  5
1BE
330
1A7
100
AcDbEntity
  8
GRUNDPLATTE
  6
Continuous
 62
     7
100
AcDbLine
 10
260.1018795599
 20
150.61456684
 30
0.0
 11
256.3518795599
 21
150.61456684
 31
0.0
  0
LINE
  5
1BF
330
1A7
100
AcDbEntity
  8
GRUNDPLATTE
  6
Continuous
 62
     7
100
AcDbLine
 10
254.1018795599
 20
128.61456684
 30
0.0
 11
254.1018795599
 21
120.1730621748
 31
0.0
  0
LINE
  5
1C0
330
1A7
100
AcDbEntity
  8
GRUNDPLATTE
  6
Continuous
 62
     7
100
AcDbLine
 10
260.1018795599
 20
126.36456684
 30
0.0
 11
260.1018795599
 21
120.1730621748
 31
0.0
  0
LINE
  5
1C1
330
1A7
100
AcDbEntity
  8
GRUNDPLATTE
  6
Continuous
 62
     7
100
AcDbLine
 10
257.8518795599
 20
128.61456684
 30
0.0
 11
254.1018795599
 21
128.61456684
 31
0.0
  0
LINE
  5
1C2
330
1A7
100
AcDbEntity
  8
GRUNDPLATTE
  6
Continuous
 62
     7
100
AcDbLine
 10
254.1018795599
 20
143.1925910492
 30
0.0
 11
254.1018795599
 21
134.11456684
 31
0.0
  0
LINE
  5
1C3
330
1A7
100
AcDbEntity
  8
GRUNDPLATTE
  6
Continuous
 62
     7
100
AcDbLine
 10
260.1018795599
 20
143.1925910492
 30
0.0
 11
260.1018795599
 21
136.36456684
 31
0.0
  0
LINE
  5
1C4
330
1A7
100
AcDbEntity
  8
GRUNDPLATTE
  6
Continuous
 62
     7
100
AcDbLine
 10
254.1018795599
 20
134.11456684
 30
0.0
 11
257.8518795599
 21
134.11456684
 31
0.0
  0
LINE
  5
1C5
330
1A7
100
AcDbEntity
  8
GRUNDPLATTE
  6
Continuous
 62
     7
100
AcDbLine
 10
260.1018795599
 20
101.36456684
 30
0.0
 11
254.1018795599
 21
101.36456684
 31
0.0
  0
LINE
  5
1C6
330
1A7
100
AcDbEntity
  8
GRUNDPLATTE
  6
Continuous
 62
     7
100
AcDbLine
 10
254.1018795599
 20
106.66456684
 30
0.0
 11
254.1018795599
 21
101.36456684
 31
0.0
  0
LINE
  5
1C7
330
1A7
100
AcDbEntity
  8
GRUNDPLATTE
  6
Continuous
 62
     7
100
AcDbLine
 10
260.1018795599
 20
104.61456684
 30
0.0
 11
260.1018795599
 21
101.36456684
 31
0.0
  0
LINE
  5
1C8
330
1A7
100
AcDbEntity
  8
GRUNDPLATTE
  6
Continuous
 62
     7
100
AcDbLine
 10
258.0518795599
 20
106.66456684
 30
0.0
 11
254.1018795599
 21
106.66456684
 31
0.0
  0
LINE
  5
1C9
330
1A7
100
AcDbEntity
  8
GRUNDPLATTE
  6
Continuous
 62
     7
100
AcDbLine
 10
254.1018795599
 20
120.1730621748
 30
0.0
 11
254.1018795599
 21
110.06456684
 31
0.0
  0
LINE
  5
1CA
330
1A7
100
AcDbEntity
  8
GRUNDPLATTE
  6
Continuous
 62
     7
100
AcDbLine
 10
260.1018795599
 20
120.1730621748
 30
0.0
 11
260.1018795599
 21
112.11456684
 31
0.0
  0
LINE
  5
1CB
330
1A7
100
AcDbEntity
  8
GRUNDPLATTE
  6
Continuous
 62
     7
100
AcDbLine
 10
254.1018795599
 20
110.06456684
 30
0.0
 11
258.0518795599
 21
110.06456684
 31
0.0
  0
LINE
  5
1CC
330
1A7
100
AcDbEntity
  8
GRUNDPLATTE
  6
Continuous
 62
     7
100
AcDbLine
 10
254.1018795599
 20
143.1925910492
 30
0.0
 11
260.1018795599
 21
143.1925910492
 31
0.0
  0
LINE
  5
1CD
330
1A7
100
AcDbEntity
  8
GRUNDPLATTE
  6
Continuous
 62
     7
100
AcDbLine
 10
254.1018795599
 20
120.1730621748
 30
0.0
 11
260.1018795599
 21
120.1730621748
 31
0.0
  0
HATCH
  5
1CE
330
1A7
100
AcDbEntity
  8
GRUNDPLATTE
  6
Continuous
 62
     7
100
AcDbHatch
 10
0.0
 20
0.0
 30
0.0
210
0.0
220
0.0
230
1.0
  2
LINE
 70
     0
 71
     0
 91
        1
 92
        1
 93
        5
 72
     1
 10
260.1018795599294
 20
101.3645668400071
 11
260.1018795599294
 21
104.6145668400071
 72
     1
 10
260.1018795599294
 20
104.6145668400071
 11
258.0518795599294
 21
106.6645668400071
 72
     1
 10
258.0518795599295
 20
106.6645668400071
 11
254.1018795599295
 21
106.6645668400071
 72
     1
 10
254.1018795599295
 20
106.6645668400071
 11
254.1018795599295
 21
101.3645668400071
 72
     1
 10
254.1018795599295
 20
101.3645668400071
 11
260.1018795599295
 21
101.3645668400071
 97
        0
 75
     0
 76
     2
 52
45.0
 41
1.2598425197
 77
     0
 78
     1
 53
45.0
 43
0.0
 44
0.0
 45
-2.828427124746189
 46
2.82842712474619
 79
     0
 98
        0
  0
HATCH
  5
1CF
330
1A7
100
AcDbEntity
  8
GRUNDPLATTE
  6
Continuous
 62
     7
100
AcDbHatch
 10
0.0
 20
0.0
 30
0.0
210
0.0
220
0.0
230
1.0
  2
LINE
 70
     0
 71
     0
 91
        1
 92
        1
 93
        5
 72
     1
 10
254.1018795599295
 20
120.1730621748468
 11
254.1018795599295
 21
110.0645668400071
 72
     1
 10
254.1018795599295
 20
110.0645668400071
 11
258.0518795599295
 21
110.0645668400071
 72
     1
 10
258.0518795599295
 20
110.0645668400071
 11
260.1018795599295
 21
112.1145668400071
 72
     1
 10
260.1018795599294
 20
112.1145668400071
 11
260.1018795599294
 21
120.1730621748468
 72
     1
 10
260.1018795599294
 20
120.1730621748468
 11
254.1018795599294
 21
120.1730621748468
 97
        0
 75
     0
 76
     2
 52
45.0
 41
1.2598425197
 77
     0
 78
     1
 53
45.0
 43
0.0
 44
0.0
 45
-2.828427124746189
 46
2.82842712474619
 79
     0
 98
        0
  0
HATCH
  5
1D0
330
1A7
100
AcDbEntity
  8
GRUNDPLATTE
  6
Continuous
 62
     7
100
AcDbHatch
 10
0.0
 20
0.0
 30
0.0
210
0.0
220
0.0
230
1.0
  2
LINE
 70
     0
 71
     0
 91
        1
 92
        1
 93
        5
 72
     1
 10
254.1018795599295
 20
143.1925910491885
 11
254.1018795599295
 21
134.1145668400072
 72
     1
 10
254.1018795599295
 20
134.1145668400071
 11
257.8518795599295
 21
134.1145668400071
 72
     1
 10
257.8518795599295
 20
134.1145668400071
 11
260.1018795599294
 21
136.3645668400071
 72
     1
 10
260.1018795599294
 20
136.3645668400071
 11
260.1018795599295
 21
143.1925910491885
 72
     1
 10
260.1018795599294
 20
143.1925910491885
 11
254.1018795599294
 21
143.1925910491885
 97
        0
 75
     0
 76
     2
 52
45.0
 41
1.2598425197
 77
     0
 78
     1
 53
45.0
 43
0.0
 44
0.0
 45
-2.828427124746189
 46
2.82842712474619
 79
     0
 98
        0
  0
HATCH
  5
1D1
330
1A7
100
AcDbEntity
  8
GRUNDPLATTE
  6
Continuous
 62
     7
100
AcDbHatch
 10
0.0
 20
0.0
 30
0.0
210
0.0
220
0.0
230
1.0
  2
LINE
 70
     0
 71
     0
 91
        1
 92
        1
 93
        5
 72
     1
 10
254.1018795599295
 20
128.6145668400072
 11
254.1018795599295
 21
120.1730621748468
 72
     1
 10
254.1018795599295
 20
120.1730621748468
 11
260.1018795599295
 21
120.1730621748468
 72
     1
 10
260.1018795599294
 20
120.1730621748468
 11
260.1018795599294
 21
126.3645668400072
 72
     1
 10
260.1018795599294
 20
126.3645668400072
 11
257.8518795599294
 21
128.6145668400072
 72
     1
 10
257.8518795599295
 20
128.6145668400072
 11
254.1018795599294
 21
128.6145668400072
 97
        0
 75
     0
 76
     2
 52
45.0
 41
1.2598425197
 77
     0
 78
     1
 53
45.0
 43
0.0
 44
0.0
 45
-2.828427124746189
 46
2.82842712474619
 79
     0
 98
        0
  0
HATCH
  5
1D2
330
1A7
100
AcDbEntity
  8
GRUNDPLATTE
  6
Continuous
 62
     7
100
AcDbHatch
 10
0.0
 20
0.0
 30
0.0
210
0.0
220
0.0
230
1.0
  2
LINE
 70
     0
 71
     0
 91
        1
 92
        1
 93
        5
 72
     1
 10
254.1018795599295
 20
161.3645668400072
 11
254.1018795599295
 21
158.3645668400072
 72
     1
 10
254.1018795599295
 20
158.3645668400072
 11
256.3518795599294
 21
156.1145668400071
 72
     1
 10
256.3518795599294
 20
156.1145668400071
 11
260.1018795599295
 21
156.1145668400071
 72
     1
 10
260.1018795599294
 20
156.1145668400071
 11
260.1018795599294
 21
161.3645668400071
 72
     1
 10
260.1018795599294
 20
161.3645668400071
 11
254.1018795599294
 21
161.3645668400072
 97
        0
 75
     0
 76
     2
 52
45.0
 41
1.2598425197
 77
     0
 78
     1
 53
45.0
 43
0.0
 44
0.0
 45
-2.828427124746189
 46
2.82842712474619
 79
     0
 98
        0
  0
HATCH
  5
1D3
330
1A7
100
AcDbEntity
  8
GRUNDPLATTE
  6
Continuous
 62
     7
100
AcDbHatch
 10
0.0
 20
0.0
 30
0.0
210
0.0
220
0.0
230
1.0
  2
LINE
 70
     0
 71
     0
 91
        1
 92
        1
 93
        5
 72
     1
 10
254.1018795599295
 20
148.3645668400071
 11
254.1018795599295
 21
143.1925910491885
 72
     1
 10
254.1018795599295
 20
143.1925910491885
 11
260.1018795599295
 21
143.1925910491885
 72
     1
 10
260.1018795599294
 20
143.1925910491885
 11
260.1018795599294
 21
150.6145668400072
 72
     1
 10
260.1018795599294
 20
150.6145668400071
 11
256.3518795599294
 21
150.6145668400071
 72
     1
 10
256.3518795599295
 20
150.6145668400071
 11
254.1018795599295
 21
148.3645668400071
 97
        0
 75
     0
 76
     2
 52
45.0
 41
1.2598425197
 77
     0
 78
     1
 53
45.0
 43
0.0
 44
0.0
 45
-2.828427124746189
 46
2.82842712474619
 79
     0
 98
        0
  0
ENDBLK
  5
1D5
330
1A7
100
AcDbEntity
  8
0
100
AcDbBlockEnd
  0
BLOCK
  5
1E0
330
1D8
100
AcDbEntity
  8
0
100
AcDbBlockBegin
  2
DMBLK17
 70
     0
 71
     0
 10
0.0
 20
0.0
 30
0.0
  3
DMBLK17
  1

  0
HATCH
  5
1D9
330
1D8
100
AcDbEntity
  8
Kontur
  6
Continuous
 62
   136
370
    20
100
AcDbHatch
 10
0.0
 20
0.0
 30
0.0
210
0.0
220
0.0
230
1.0
  2
SOLID
 70
     1
 71
     0
 91
        1
 92
        1
 93
        3
 72
     1
 10
271.9080895196401
 20
122.8645667319737
 11
271.3247561683012
 21
126.3645668400072
 72
     1
 10
271.3247561683012
 20
126.3645668400072
 11
270.7414228169623
 21
122.8645667319737
 72
     1
 10
270.7414228169623
 20
122.8645667319737
 11
271.9080895196402
 21
122.8645667319737
 97
        0
 75
     0
 76
     1
 98
        0
  0
HATCH
  5
1DA
330
1D8
100
AcDbEntity
  8
Kontur
  6
Continuous
 62
   136
370
    20
100
AcDbHatch
 10
0.0
 20
0.0
 30
0.0
210
0.0
220
0.0
230
1.0
  2
SOLID
 70
     1
 71
     0
 91
        1
 92
        1
 93
        3
 72
     1
 10
271.9080895196401
 20
139.8645669480406
 11
270.7414228169623
 21
139.8645669480406
 72
     1
 10
270.7414228169623
 20
139.8645669480406
 11
271.3247561683012
 21
136.3645668400071
 72
     1
 10
271.3247561683012
 20
136.3645668400071
 11
271.9080895196401
 21
139.8645669480406
 97
        0
 75
     0
 76
     1
 98
        0
  0
LINE
  5
1DB
330
1D8
100
AcDbEntity
  8
Kontur
  6
Continuous
 62
   136
370
    20
100
AcDbLine
 10
260.1018795599
 20
126.36456684
 30
0.0
 11
273.0747562223
 21
126.36456684
 31
0.0
  0
LINE
  5
1DC
330
1D8
100
AcDbEntity
  8
Kontur
  6
Continuous
 62
   136
370
    20
100
AcDbLine
 10
260.1018795599
 20
136.36456684
 30
0.0
 11
273.0747562223
 21
136.36456684
 31
0.0
  0
LINE
  5
1DD
330
1D8
100
AcDbEntity
  8
Kontur
  6
Continuous
 62
   136
370
    20
100
AcDbLine
 10
271.3247561683
 20
119.3645666239
 30
0.0
 11
271.3247561683
 21
143.3645677639
 31
0.0
  0
TEXT
  5
1DE
330
1D8
100
AcDbEntity
  8
Kontur
  6
Continuous
 62
   136
370
    20
100
AcDbText
 10
270.6247561683
 20
131.9132566846
 30
0.0
 40
3.5
  1
10
 50
90.0
  7
SEACAD_seiso_ttf
 11
267.1247561683
 21
131.9132566846
 31
0.0
100
AcDbText
 73
     3
  0
TEXT
  5
1DF
330
1D8
100
AcDbEntity
  8
Kontur
  6
Continuous
 62
   136
370
    20
100
AcDbText
 10
270.6247561683
 20
127.3158767719
 30
0.0
 40
3.5
  1
O
 50
90.0
  7
SEACAD_semeci1_ttf
 11
267.1247561683
 21
127.3158767719
 31
0.0
100
AcDbText
 73
     3
  0
ENDBLK
  5
1E1
330
1D8
100
AcDbEntity
  8
0
100
AcDbBlockEnd
  0
BLOCK
  5
1EB
330
1E3
100
AcDbEntity
  8
0
100
AcDbBlockBegin
  2
DMBLK18
 70
     0
 71
     0
 10
0.0
 20
0.0
 30
0.0
  3
DMBLK18
  1

  0
HATCH
  5
1E4
330
1E3
100
AcDbEntity
  8
Kontur
  6
Continuous
 62
   136
370
    20
100
AcDbHatch
 10
0.0
 20
0.0
 30
0.0
210
0.0
220
0.0
230
1.0
  2
SOLID
 70
     1
 71
     0
 91
        1
 92
        1
 93
        3
 72
     1
 10
240.9032267926636
 20
125.1145667319737
 11
242.0698934953414
 21
125.1145667319737
 72
     1
 10
242.0698934953414
 20
125.1145667319737
 11
241.4865601440025
 21
128.6145668400072
 72
     1
 10
241.4865601440025
 20
128.6145668400072
 11
240.9032267926636
 21
125.1145667319738
 97
        0
 75
     0
 76
     1
 98
        0
  0
HATCH
  5
1E5
330
1E3
100
AcDbEntity
  8
Kontur
  6
Continuous
 62
   136
370
    20
100
AcDbHatch
 10
0.0
 20
0.0
 30
0.0
210
0.0
220
0.0
230
1.0
  2
SOLID
 70
     1
 71
     0
 91
        1
 92
        1
 93
        3
 72
     1
 10
240.9032267926636
 20
137.6145669480406
 11
241.4865601440025
 21
134.1145668400071
 72
     1
 10
241.4865601440025
 20
134.1145668400071
 11
242.0698934953414
 21
137.6145669480406
 72
     1
 10
242.0698934953414
 20
137.6145669480406
 11
240.9032267926636
 21
137.6145669480406
 97
        0
 75
     0
 76
     1
 98
        0
  0
LINE
  5
1E6
330
1E3
100
AcDbEntity
  8
Kontur
  6
Continuous
 62
   136
370
    20
100
AcDbLine
 10
255.9768795599
 20
128.61456684
 30
0.0
 11
239.73656009
 21
128.61456684
 31
0.0
  0
LINE
  5
1E7
330
1E3
100
AcDbEntity
  8
Kontur
  6
Continuous
 62
   136
370
    20
100
AcDbLine
 10
255.9768795599
 20
134.11456684
 30
0.0
 11
239.73656009
 21
134.11456684
 31
0.0
  0
LINE
  5
1E8
330
1E3
100
AcDbEntity
  8
Kontur
  6
Continuous
 62
   136
370
    20
100
AcDbLine
 10
241.486560144
 20
109.0696897281
 30
0.0
 11
241.486560144
 21
141.1145670263
 31
0.0
  0
TEXT
  5
1E9
330
1E3
100
AcDbEntity
  8
Kontur
  6
Continuous
 62
   136
370
    20
100
AcDbText
 10
240.786560144
 20
114.3670696678
 30
0.0
 40
3.5
  1
5,5
 50
90.0
  7
SEACAD_seiso_ttf
 11
237.286560144
 21
114.3670696678
 31
0.0
100
AcDbText
 73
     3
  0
TEXT
  5
1EA
330
1E3
100
AcDbEntity
  8
Kontur
  6
Continuous
 62
   136
370
    20
100
AcDbText
 10
240.786560144
 20
109.7696897551
 30
0.0
 40
3.5
  1
O
 50
90.0
  7
SEACAD_semeci1_ttf
 11
237.286560144
 21
109.7696897551
 31
0.0
100
AcDbText
 73
     3
  0
ENDBLK
  5
1EC
330
1E3
100
AcDbEntity
  8
0
100
AcDbBlockEnd
  0
BLOCK
  5
1F6
330
1EE
100
AcDbEntity
  8
0
100
AcDbBlockBegin
  2
DMBLK19
 70
     0
 71
     0
 10
0.0
 20
0.0
 30
0.0
  3
DMBLK19
  1

  0
HATCH
  5
1EF
330
1EE
100
AcDbEntity
  8
Kontur
  6
Continuous
 62
   136
370
    20
100
AcDbHatch
 10
0.0
 20
0.0
 30
0.0
210
0.0
220
0.0
230
1.0
  2
SOLID
 70
     1
 71
     0
 91
        1
 92
        1
 93
        3
 72
     1
 10
271.9080895196401
 20
101.1145667319737
 11
271.3247561683012
 21
104.6145668400071
 72
     1
 10
271.3247561683012
 20
104.6145668400071
 11
270.7414228169623
 21
101.1145667319737
 72
     1
 10
270.7414228169623
 20
101.1145667319737
 11
271.9080895196402
 21
101.1145667319737
 97
        0
 75
     0
 76
     1
 98
        0
  0
HATCH
  5
1F0
330
1EE
100
AcDbEntity
  8
Kontur
  6
Continuous
 62
   136
370
    20
100
AcDbHatch
 10
0.0
 20
0.0
 30
0.0
210
0.0
220
0.0
230
1.0
  2
SOLID
 70
     1
 71
     0
 91
        1
 92
        1
 93
        3
 72
     1
 10
271.9080895196401
 20
115.6145669480405
 11
270.7414228169623
 21
115.6145669480405
 72
     1
 10
270.7414228169623
 20
115.6145669480405
 11
271.3247561683012
 21
112.1145668400071
 72
     1
 10
271.3247561683012
 20
112.1145668400071
 11
271.9080895196401
 21
115.6145669480405
 97
        0
 75
     0
 76
     1
 98
        0
  0
LINE
  5
1F1
330
1EE
100
AcDbEntity
  8
Kontur
  6
Continuous
 62
   136
370
    20
100
AcDbLine
 10
260.1018795599
 20
104.61456684
 30
0.0
 11
273.0747562223
 21
104.61456684
 31
0.0
  0
LINE
  5
1F2
330
1EE
100
AcDbEntity
  8
Kontur
  6
Continuous
 62
   136
370
    20
100
AcDbLine
 10
260.1018795599
 20
112.11456684
 30
0.0
 11
273.0747562223
 21
112.11456684
 31
0.0
  0
LINE
  5
1F3
330
1EE
100
AcDbEntity
  8
Kontur
  6
Continuous
 62
   136
370
    20
100
AcDbLine
 10
271.3247561683
 20
97.6145666239
 30
0.0
 11
271.3247561683
 21
119.1145664228
 31
0.0
  0
TEXT
  5
1F4
330
1EE
100
AcDbEntity
  8
Kontur
  6
Continuous
 62
   136
370
    20
100
AcDbText
 10
270.6247561683
 20
108.2371203489
 30
0.0
 40
3.5
  1
7,5
 50
90.0
  7
SEACAD_seiso_ttf
 11
267.1247561683
 21
108.2371203489
 31
0.0
100
AcDbText
 73
     3
  0
TEXT
  5
1F5
330
1EE
100
AcDbEntity
  8
Kontur
  6
Continuous
 62
   136
370
    20
100
AcDbText
 10
270.6247561683
 20
103.6397404362
 30
0.0
 40
3.5
  1
O
 50
90.0
  7
SEACAD_semeci1_ttf
 11
267.1247561683
 21
103.6397404362
 31
0.0
100
AcDbText
 73
     3
  0
ENDBLK
  5
1F7
330
1EE
100
AcDbEntity
  8
0
100
AcDbBlockEnd
  0
BLOCK
  5
201
330
1F9
100
AcDbEntity
  8
0
100
AcDbBlockBegin
  2
DMBLK20
 70
     0
 71
     0
 10
0.0
 20
0.0
 30
0.0
  3
DMBLK20
  1

  0
HATCH
  5
1FA
330
1F9
100
AcDbEntity
  8
Kontur
  6
Continuous
 62
   136
370
    20
100
AcDbHatch
 10
0.0
 20
0.0
 30
0.0
210
0.0
220
0.0
230
1.0
  2
SOLID
 70
     1
 71
     0
 91
        1
 92
        1
 93
        3
 72
     1
 10
249.3508260941508
 20
103.1645667319737
 11
250.5174927968287
 21
103.1645667319737
 72
     1
 10
250.5174927968287
 20
103.1645667319737
 11
249.9341594454897
 21
106.6645668400071
 72
     1
 10
249.9341594454897
 20
106.6645668400071
 11
249.3508260941508
 21
103.1645667319737
 97
        0
 75
     0
 76
     1
 98
        0
  0
HATCH
  5
1FB
330
1F9
100
AcDbEntity
  8
Kontur
  6
Continuous
 62
   136
370
    20
100
AcDbHatch
 10
0.0
 20
0.0
 30
0.0
210
0.0
220
0.0
230
1.0
  2
SOLID
 70
     1
 71
     0
 91
        1
 92
        1
 93
        3
 72
     1
 10
249.3508260941508
 20
113.5645669480406
 11
249.9341594454897
 21
110.0645668400071
 72
     1
 10
249.9341594454897
 20
110.0645668400071
 11
250.5174927968287
 21
113.5645669480406
 72
     1
 10
250.5174927968287
 20
113.5645669480406
 11
249.3508260941508
 21
113.5645669480406
 97
        0
 75
     0
 76
     1
 98
        0
  0
LINE
  5
1FC
330
1F9
100
AcDbEntity
  8
Kontur
  6
Continuous
 62
   136
370
    20
100
AcDbLine
 10
256.0768795599
 20
106.66456684
 30
0.0
 11
248.1841593915
 21
106.66456684
 31
0.0
  0
LINE
  5
1FD
330
1F9
100
AcDbEntity
  8
Kontur
  6
Continuous
 62
   136
370
    20
100
AcDbLine
 10
256.0768795599
 20
110.06456684
 30
0.0
 11
248.1841593915
 21
110.06456684
 31
0.0
  0
LINE
  5
1FE
330
1F9
100
AcDbEntity
  8
Kontur
  6
Continuous
 62
   136
370
    20
100
AcDbLine
 10
249.9341594455
 20
99.6645666239
 30
0.0
 11
249.9341594455
 21
125.7124417973
 31
0.0
  0
TEXT
  5
1FF
330
1F9
100
AcDbEntity
  8
Kontur
  6
Continuous
 62
   136
370
    20
100
AcDbText
 10
249.2341594455
 20
120.4783505991
 30
0.0
 40
3.5
  1
3,4
 50
90.0
  7
SEACAD_seiso_ttf
 11
245.7341594455
 21
120.4783505991
 31
0.0
100
AcDbText
 73
     3
  0
TEXT
  5
200
330
1F9
100
AcDbEntity
  8
Kontur
  6
Continuous
 62
   136
370
    20
100
AcDbText
 10
249.2341594455
 20
115.8809706864
 30
0.0
 40
3.5
  1
O
 50
90.0
  7
SEACAD_semeci1_ttf
 11
245.7341594455
 21
115.8809706864
 31
0.0
100
AcDbText
 73
     3
  0
ENDBLK
  5
202
330
1F9
100
AcDbEntity
  8
0
100
AcDbBlockEnd
  0
BLOCK
  5
20B
330
204
100
AcDbEntity
  8
0
100
AcDbBlockBegin
  2
DMBLK21
 70
     0
 71
     0
 10
0.0
 20
0.0
 30
0.0
  3
DMBLK21
  1

  0
HATCH
  5
205
330
204
100
AcDbEntity
  8
Kontur
  6
Continuous
 62
   136
370
    20
100
AcDbHatch
 10
0.0
 20
0.0
 30
0.0
210
0.0
220
0.0
230
1.0
  2
SOLID
 70
     1
 71
     0
 91
        1
 92
        1
 93
        3
 72
     1
 10
250.6018794518961
 20
169.4181843143197
 11
250.6018794518961
 21
168.251517611642
 72
     1
 10
250.6018794518961
 20
168.251517611642
 11
254.1018795599295
 21
168.8348509629809
 72
     1
 10
254.1018795599295
 20
168.8348509629809
 11
250.6018794518961
 21
169.4181843143197
 97
        0
 75
     0
 76
     1
 98
        0
  0
HATCH
  5
206
330
204
100
AcDbEntity
  8
Kontur
  6
Continuous
 62
   136
370
    20
100
AcDbHatch
 10
0.0
 20
0.0
 30
0.0
210
0.0
220
0.0
230
1.0
  2
SOLID
 70
     1
 71
     0
 91
        1
 92
        1
 93
        3
 72
     1
 10
263.6018796679629
 20
169.4181843143197
 11
260.1018795599294
 21
168.8348509629809
 72
     1
 10
260.1018795599294
 20
168.8348509629809
 11
263.6018796679629
 21
168.251517611642
 72
     1
 10
263.6018796679629
 20
168.251517611642
 11
263.6018796679629
 21
169.4181843143197
 97
        0
 75
     0
 76
     1
 98
        0
  0
LINE
  5
207
330
204
100
AcDbEntity
  8
Kontur
  6
Continuous
 62
   136
370
    20
100
AcDbLine
 10
254.1018795599
 20
161.36456684
 30
0.0
 11
254.1018795599
 21
170.584851017
 31
0.0
  0
LINE
  5
208
330
204
100
AcDbEntity
  8
Kontur
  6
Continuous
 62
   136
370
    20
100
AcDbLine
 10
260.1018795599
 20
161.36456684
 30
0.0
 11
260.1018795599
 21
170.584851017
 31
0.0
  0
LINE
  5
209
330
204
100
AcDbEntity
  8
Kontur
  6
Continuous
 62
   136
370
    20
100
AcDbLine
 10
247.1018793439
 20
168.834850963
 30
0.0
 11
267.1018798282
 21
168.834850963
 31
0.0
  0
TEXT
  5
20A
330
204
100
AcDbEntity
  8
Kontur
  6
Continuous
 62
   136
370
    20
100
AcDbText
 10
256.0280159496
 20
169.534850963
 30
0.0
 40
3.5
  1
6
  7
SEACAD_seiso_ttf
 11
256.0280159496
 21
173.034850963
 31
0.0
100
AcDbText
 73
     3
  0
ENDBLK
  5
20C
330
204
100
AcDbEntity
  8
0
100
AcDbBlockEnd
  0
BLOCK
  5
216
330
20E
100
AcDbEntity
  8
0
100
AcDbBlockBegin
  2
DMBLK22
 70
     0
 71
     0
 10
0.0
 20
0.0
 30
0.0
  3
DMBLK22
  1

  0
HATCH
  5
20F
330
20E
100
AcDbEntity
  8
Kontur
  6
Continuous
 62
   136
370
    20
100
AcDbHatch
 10
0.0
 20
0.0
 30
0.0
210
0.0
220
0.0
230
1.0
  2
SOLID
 70
     1
 71
     0
 91
        1
 92
        1
 93
        3
 72
     1
 10
249.4958897343281
 20
161.8645669480406
 11
250.079223085667
 21
158.3645668400071
 72
     1
 10
250.079223085667
 20
158.3645668400071
 11
250.6625564370059
 21
161.8645669480406
 72
     1
 10
250.6625564370059
 20
161.8645669480406
 11
249.4958897343281
 21
161.8645669480406
 97
        0
 75
     0
 76
     1
 98
        0
  0
HATCH
  5
210
330
20E
100
AcDbEntity
  8
Kontur
  6
Continuous
 62
   136
370
    20
100
AcDbHatch
 10
0.0
 20
0.0
 30
0.0
210
0.0
220
0.0
230
1.0
  2
SOLID
 70
     1
 71
     0
 91
        1
 92
        1
 93
        3
 72
     1
 10
249.4958897343281
 20
144.8645667319737
 11
250.6625564370059
 21
144.8645667319737
 72
     1
 10
250.6625564370059
 20
144.8645667319737
 11
250.079223085667
 21
148.3645668400071
 72
     1
 10
250.079223085667
 20
148.3645668400071
 11
249.4958897343281
 21
144.8645667319737
 97
        0
 75
     0
 76
     1
 98
        0
  0
LINE
  5
211
330
20E
100
AcDbEntity
  8
Kontur
  6
Continuous
 62
   136
370
    20
100
AcDbLine
 10
254.1018795599
 20
158.36456684
 30
0.0
 11
248.3292230317
 21
158.36456684
 31
0.0
  0
LINE
  5
212
330
20E
100
AcDbEntity
  8
Kontur
  6
Continuous
 62
   136
370
    20
100
AcDbLine
 10
254.1018795599
 20
148.36456684
 30
0.0
 11
248.3292230317
 21
148.36456684
 31
0.0
  0
LINE
  5
213
330
20E
100
AcDbEntity
  8
Kontur
  6
Continuous
 62
   136
370
    20
100
AcDbLine
 10
250.0792230857
 20
165.3645670561
 30
0.0
 11
250.0792230857
 21
141.3645659161
 31
0.0
  0
TEXT
  5
214
330
20E
100
AcDbEntity
  8
Kontur
  6
Continuous
 62
   136
370
    20
100
AcDbText
 10
249.3792230857
 20
153.9132569081
 30
0.0
 40
3.5
  1
10
 50
90.0
  7
SEACAD_seiso_ttf
 11
245.8792230857
 21
153.9132569081
 31
0.0
100
AcDbText
 73
     3
  0
TEXT
  5
215
330
20E
100
AcDbEntity
  8
Kontur
  6
Continuous
 62
   136
370
    20
100
AcDbText
 10
249.3792230857
 20
149.3158769954
 30
0.0
 40
3.5
  1
O
 50
90.0
  7
SEACAD_semeci1_ttf
 11
245.8792230857
 21
149.3158769954
 31
0.0
100
AcDbText
 73
     3
  0
ENDBLK
  5
217
330
20E
100
AcDbEntity
  8
0
100
AcDbBlockEnd
  0
BLOCK
  5
221
330
219
100
AcDbEntity
  8
0
100
AcDbBlockBegin
  2
DMBLK23
 70
     0
 71
     0
 10
0.0
 20
0.0
 30
0.0
  3
DMBLK23
  1

  0
HATCH
  5
21A
330
219
100
AcDbEntity
  8
Kontur
  6
Continuous
 62
   136
370
    20
100
AcDbHatch
 10
0.0
 20
0.0
 30
0.0
210
0.0
220
0.0
230
1.0
  2
SOLID
 70
     1
 71
     0
 91
        1
 92
        1
 93
        3
 72
     1
 10
271.8402883048855
 20
147.1145667319737
 11
271.2569549535466
 21
150.6145668400071
 72
     1
 10
271.2569549535466
 20
150.6145668400071
 11
270.6736216022077
 21
147.1145667319737
 72
     1
 10
270.6736216022077
 20
147.1145667319737
 11
271.8402883048856
 21
147.1145667319737
 97
        0
 75
     0
 76
     1
 98
        0
  0
HATCH
  5
21B
330
219
100
AcDbEntity
  8
Kontur
  6
Continuous
 62
   136
370
    20
100
AcDbHatch
 10
0.0
 20
0.0
 30
0.0
210
0.0
220
0.0
230
1.0
  2
SOLID
 70
     1
 71
     0
 91
        1
 92
        1
 93
        3
 72
     1
 10
271.8402883048855
 20
159.6145669480406
 11
270.6736216022077
 21
159.6145669480406
 72
     1
 10
270.6736216022077
 20
159.6145669480406
 11
271.2569549535467
 21
156.1145668400071
 72
     1
 10
271.2569549535466
 20
156.1145668400071
 11
271.8402883048855
 21
159.6145669480406
 97
        0
 75
     0
 76
     1
 98
        0
  0
LINE
  5
21C
330
219
100
AcDbEntity
  8
Kontur
  6
Continuous
 62
   136
370
    20
100
AcDbLine
 10
260.1018795599
 20
150.61456684
 30
0.0
 11
273.0069550076
 21
150.61456684
 31
0.0
  0
LINE
  5
21D
330
219
100
AcDbEntity
  8
Kontur
  6
Continuous
 62
   136
370
    20
100
AcDbLine
 10
260.1018795599
 20
156.11456684
 30
0.0
 11
273.0069550076
 21
156.11456684
 31
0.0
  0
LINE
  5
21E
330
219
100
AcDbEntity
  8
Kontur
  6
Continuous
 62
   136
370
    20
100
AcDbLine
 10
271.2569549535
 20
143.6145666239
 30
0.0
 11
271.2569549535
 21
168.7269170953
 31
0.0
  0
TEXT
  5
21F
330
219
100
AcDbEntity
  8
Kontur
  6
Continuous
 62
   136
370
    20
100
AcDbText
 10
270.5569549535
 20
163.4132807046
 30
0.0
 40
3.5
  1
5,5
 50
90.0
  7
SEACAD_seiso_ttf
 11
267.0569549535
 21
163.4132807046
 31
0.0
100
AcDbText
 73
     3
  0
TEXT
  5
220
330
219
100
AcDbEntity
  8
Kontur
  6
Continuous
 62
   136
370
    20
100
AcDbText
 10
270.5569549535
 20
158.815900792
 30
0.0
 40
3.5
  1
O
 50
90.0
  7
SEACAD_semeci1_ttf
 11
267.0569549535
 21
158.815900792
 31
0.0
100
AcDbText
 73
     3
  0
ENDBLK
  5
222
330
219
100
AcDbEntity
  8
0
100
AcDbBlockEnd
  0
ENDSEC
  0
SECTION
  2
ENTITIES
  0
TEXT
  5
2B
330
1F
100
AcDbEntity
  8
Kontur
  6
Continuous
 62
     7
100
AcDbText
 10
118.6142692395
 20
30.2046061429
 30
0.0
 40
2.5
  1
x
  7
SEACAD_seiso_ttf
 11
118.6142692395
 21
32.7046061429
 31
0.0
100
AcDbText
 73
     3
  0
TEXT
  5
2D
330
1F
100
AcDbEntity
  8
Kontur
  6
Continuous
 62
     7
100
AcDbText
 10
118.6142692395
 20
34.1418064123
 30
0.0
 40
2.5
  1
x
  7
SEACAD_seiso_ttf
 11
118.6142692395
 21
36.6418064123
 31
0.0
100
AcDbText
 73
     3
  0
TEXT
  5
2E
330
1F
100
AcDbEntity
  8
Kontur
  6
Continuous
 62
     7
100
AcDbText
 10
118.6914692448
 20
26.1516058655
 30
0.0
 40
2.5
  1
x
  7
SEACAD_seiso_ttf
 11
118.6914692448
 21
28.6516058655
 31
0.0
100
AcDbText
 73
     3
  0
TEXT
  5
2F
330
1F
100
AcDbEntity
  8
Kontur
  6
Continuous
 62
     7
100
AcDbText
 10
118.5756692369
 20
22.1758055935
 30
0.0
 40
2.5
  1
x
  7
SEACAD_seiso_ttf
 11
118.5756692369
 21
24.6758055935
 31
0.0
100
AcDbText
 73
     3
  0
TEXT
  5
30
330
1F
100
AcDbEntity
  8
Kontur
  6
Continuous
 62
     7
100
AcDbText
 10
118.6528692422
 20
18.1228053161
 30
0.0
 40
2.5
  1
x
  7
SEACAD_seiso_ttf
 11
118.6528692422
 21
20.6228053161
 31
0.0
100
AcDbText
 73
     3
  0
TEXT
  5
31
330
1F
100
AcDbEntity
  8
Kontur
  6
Continuous
 62
     7
100
AcDbText
 10
118.7276916502
 20
14.1660722112
 30
0.0
 40
2.5
  1
x
  7
SEACAD_seiso_ttf
 11
118.7276916502
 21
16.6660722112
 31
0.0
100
AcDbText
 73
     3
  0
TEXT
  5
32
330
1F
100
AcDbEntity
  8
Kontur
  6
Continuous
 62
     7
100
AcDbText
 10
130.7859158574
 20
22.9059534704
 30
0.0
 40
5.0
  1
1 : 1
  7
SEACAD_seiso_ttf
 11
130.7859158574
 21
27.9059534704
 31
0.0
100
AcDbText
 73
     3
  0
TEXT
  5
33
330
1F
100
AcDbEntity
  8
Kontur
  6
Continuous
 62
     7
100
AcDbText
 10
203.9828155236
 20
9.908325818
 30
0.0
 40
5.0
  1
Grundplatte
  7
SEACAD_seiso_ttf
 11
203.9828155236
 21
14.908325818
 31
0.0
100
AcDbText
 73
     3
  0
TEXT
  5
34
330
1F
100
AcDbEntity
  8
Kontur
  6
Continuous
 62
     7
100
AcDbText
 10
265.8234998184
 20
7.9187274116
 30
0.0
 40
5.0
  1
3 / 7
  7
SEACAD_seiso_ttf
 11
265.8234998184
 21
12.9187274116
 31
0.0
100
AcDbText
 73
     3
  0
TEXT
  5
35
330
1F
100
AcDbEntity
  8
Kontur
  6
Continuous
 62
     7
100
AcDbText
 10
156.7255161442
 20
21.1546655865
 30
0.0
 40
2.5
  1
x
  7
SEACAD_seiso_ttf
 11
156.7255161442
 21
23.6546655865
 31
0.0
100
AcDbText
 73
     3
  0
TEXT
  5
36
330
1F
100
AcDbEntity
  8
Kontur
  6
Continuous
 62
     7
100
AcDbText
 10
175.8470834904
 20
21.1546655865
 30
0.0
 40
2.5
  1
x
  7
SEACAD_seiso_ttf
 11
175.8470834904
 21
23.6546655865
 31
0.0
100
AcDbText
 73
     3
  0
INSERT
  5
38
330
1F
100
AcDbEntity
  8
Kontur
100
AcDbBlockReference
  2
SEANNOT_GROUP
 10
0.0
 20
0.0
 30
0.0
  0
INSERT
  5
43
330
1F
100
AcDbEntity
  8
Kontur
100
AcDbBlockReference
  2
SEANNOT_GROUP1
 10
0.0
 20
0.0
 30
0.0
  0
INSERT
  5
4D
330
1F
100
AcDbEntity
  8
Kontur
100
AcDbBlockReference
  2
SEANNOT_GROUP2
 10
0.0
 20
0.0
 30
0.0
  0
INSERT
  5
57
330
1F
100
AcDbEntity
  8
Kontur
100
AcDbBlockReference
  2
SEANNOT_GROUP3
 10
0.0
 20
0.0
 30
0.0
  0
INSERT
  5
61
330
1F
100
AcDbEntity
  8
Kontur
100
AcDbBlockReference
  2
SEANNOT_GROUP4
 10
0.0
 20
0.0
 30
0.0
  0
INSERT
  5
6B
330
1F
100
AcDbEntity
  8
Kontur
100
AcDbBlockReference
  2
SEANNOT_GROUP5
 10
0.0
 20
0.0
 30
0.0
  0
INSERT
  5
75
330
1F
100
AcDbEntity
  8
Kontur
100
AcDbBlockReference
  2
SEANNOT_GROUP6
 10
0.0
 20
0.0
 30
0.0
  0
TEXT
  5
7E
330
1F
100
AcDbEntity
  8
Kontur
  6
Continuous
 62
     7
100
AcDbText
 10
99.9965110014
 20
43.5393075018
 30
0.0
 40
2.5
  1
1
  7
SEACAD_seiso_ttf
 11
99.9965110014
 21
46.0393075018
 31
0.0
100
AcDbText
 73
     3
  0
TEXT
  5
7F
330
1F
100
AcDbEntity
  8
Kontur
  6
Continuous
 62
     7
100
AcDbText
 10
128.3666102595
 20
43.5277010088
 30
0.0
 40
2.5
  1
Grundplatte
  7
SEACAD_seiso_ttf
 11
128.3666102595
 21
46.0277010088
 31
0.0
100
AcDbText
 73
     3
  0
TEXT
  5
80
330
1F
100
AcDbEntity
  8
Kontur
  6
Continuous
 62
     7
100
AcDbText
 10
109.8825591805
 20
43.3302581492
 30
0.0
 40
2.5
  1
1
  7
SEACAD_seiso_ttf
 11
109.8825591805
 21
45.8302581492
 31
0.0
100
AcDbText
 73
     3
  0
TEXT
  5
81
330
1F
100
AcDbEntity
  8
Kontur
  6
Continuous
 62
     7
100
AcDbText
 10
155.4303645216
 20
43.5538908351
 30
0.0
 40
2.4694444444
  1
Fl 60x6x130 DIN EN 754-4 AlCu4PbMgMn
  7
SEACAD_seiso_ttf
 11
155.4303645216
 21
46.0233352796
 31
0.0
100
AcDbText
 73
     3
  0
INSERT
  5
83
330
1F
100
AcDbEntity
  8
Kontur
100
AcDbBlockReference
  2
SE
 10
0.0
 20
0.0
 30
0.0
  0
DIMENSION
  5
B8
330
1F
100
AcDbEntity
  8
Kontur
  6
Continuous
 62
   136
370
    20
100
AcDbDimension
  2
DMBLK1
 10
59.8812638234
 20
67.2271452916
 30
0.0
 11
79.8812633763
 21
67.2271452916
 31
0.0
 70
   161
  1
\A1;<>
 71
     5
 42
-1.0
  3
BSZ-Bemaßung
100
AcDbAlignedDimension
 13
59.8812638234
 23
131.36456684
 33
0.0
 14
99.8812638234
 24
131.36456684
 34
0.0
  0
DIMENSION
  5
C2
330
1F
100
AcDbEntity
  8
Kontur
  6
Continuous
 62
   136
370
    20
100
AcDbDimension
  2
DMBLK2
 10
179.8812638234
 20
66.8333597554
 30
0.0
 11
139.8812629293
 21
66.8333597554
 31
0.0
 70
   160
  1
\A1;<>
 71
     5
 42
-1.0
  3
BSZ-Bemaßung
100
AcDbAlignedDimension
 13
99.8812638234
 23
131.36456684
 33
0.0
 14
179.8812638234
 24
103.36456684
 34
0.0
100
AcDbRotatedDimension
  0
DIMENSION
  5
CC
330
1F
100
AcDbEntity
  8
Kontur
  6
Continuous
 62
   136
370
    20
100
AcDbDimension
  2
DMBLK3
 10
134.8812638234
 20
149.5588960906
 30
0.0
 11
144.8812640469
 21
149.5588960906
 31
0.0
 70
   160
  1
\A1;<>
 71
     5
 42
-1.0
  3
BSZ-Bemaßung
100
AcDbAlignedDimension
 13
154.8812638234
 23
155.36456684
 33
0.0
 14
134.8812638234
 24
155.36456684
 34
0.0
100
AcDbRotatedDimension
  0
DIMENSION
  5
D6
330
1F
100
AcDbEntity
  8
Kontur
  6
Continuous
 62
   136
370
    20
100
AcDbDimension
  2
DMBLK4
 10
210.6871387671
 20
155.36456684
 30
0.0
 11
210.6871387671
 21
128.3645675404
 31
0.0
 70
   160
  1
\A1;<>
 71
     5
 42
-1.0
  3
BSZ-Bemaßung
100
AcDbAlignedDimension
 13
177.8812638234
 23
101.36456684
 33
0.0
 14
154.8812638234
 24
155.36456684
 34
0.0
 50
90.0
100
AcDbRotatedDimension
  0
DIMENSION
  5
E0
330
1F
100
AcDbEntity
  8
Kontur
  6
Continuous
 62
   136
370
    20
100
AcDbDimension
  2
DMBLK5
 10
57.8812638234
 20
172.4004873408
 30
0.0
 11
114.8812637936
 21
172.4004873408
 31
0.0
 70
   160
  1
\A1;<>
 71
     5
 42
-1.0
  3
BSZ-Bemaßung
100
AcDbAlignedDimension
 13
171.8812638234
 23
153.36456684
 33
0.0
 14
57.8812638234
 24
153.36456684
 34
0.0
100
AcDbRotatedDimension
  0
DIMENSION
  5
EA
330
1F
100
AcDbEntity
  8
Kontur
  6
Continuous
 62
   136
370
    20
100
AcDbDimension
  2
DMBLK6
 10
41.5573025058
 20
153.36456684
 30
0.0
 11
41.5573025058
 21
131.3645669592
 31
0.0
 70
   161
  1
\A1;<>
 71
     5
 42
-1.0
  3
BSZ-Bemaßung
100
AcDbAlignedDimension
 13
57.8812638234
 23
153.36456684
 33
0.0
 14
57.8812638234
 24
109.36456684
 34
0.0
  0
DIMENSION
  5
F4
330
1F
100
AcDbEntity
  8
Kontur
  6
Continuous
 62
   136
370
    20
100
AcDbDimension
  2
DMBLK7
 10
132.8812638234
 20
165.7455148024
 30
0.0
 11
142.2969639237
 21
165.7455148024
 31
0.0
 70
   161
  1
\A1;M <>
 71
     5
 42
-1.0
  3
BSZ-Bemaßung
100
AcDbAlignedDimension
 13
132.8812638234
 23
155.36456684
 33
0.0
 14
136.8812638234
 24
155.36456684
 34
0.0
  0
DIMENSION
  5
FF
330
1F
100
AcDbEntity
  8
Kontur
  6
Continuous
 62
   136
370
    20
100
AcDbDimension
  2
DMBLK8
 10
49.8812638234
 20
51.3183013869
 30
0.0
 11
114.8812662076
 21
51.3183013869
 31
0.0
 70
   160
  1
\A1;<>
 71
     5
 42
-1.0
  3
BSZ-Bemaßung
100
AcDbAlignedDimension
 13
179.8812638234
 23
103.36456684
 33
0.0
 14
49.8812638234
 24
103.36456684
 34
0.0
100
AcDbRotatedDimension
  0
DIMENSION
  5
109
330
1F
100
AcDbEntity
  8
Kontur
  6
Continuous
 62
   136
370
    20
100
AcDbDimension
  2
DMBLK9
 10
226.7402305018
 20
101.36456684
 30
0.0
 11
226.7402305018
 21
131.3645661695
 31
0.0
 70
   161
  1
\A1;<>
 71
     5
 42
-1.0
  3
BSZ-Bemaßung
100
AcDbAlignedDimension
 13
177.8812638234
 23
101.36456684
 33
0.0
 14
177.8812638234
 24
161.36456684
 34
0.0
  0
DIMENSION
  5
113
330
1F
100
AcDbEntity
  8
Kontur
  6
Continuous
 62
   136
370
    20
100
AcDbDimension
  2
DMBLK10
 10
154.8812638234
 20
183.5272337122
 30
0.0
 11
167.3812636371
 21
183.5272337122
 31
0.0
 70
   160
  1
\A1;<>
 71
     5
 42
-1.0
  3
BSZ-Bemaßung
100
AcDbAlignedDimension
 13
179.8812638234
 23
159.36456684
 33
0.0
 14
154.8812638234
 24
155.36456684
 34
0.0
100
AcDbRotatedDimension
  0
INSERT
  5
11E
330
1F
100
AcDbEntity
  8
Kontur
100
AcDbBlockReference
  2
SE1
 10
0.0
 20
0.0
 30
0.0
  0
INSERT
  5
13B
330
1F
100
AcDbEntity
  8
Kontur
100
AcDbBlockReference
  2
SE6
 10
0.0
 20
0.0
 30
0.0
  0
DIMENSION
  5
169
330
1F
100
AcDbEntity
  8
Kontur
  6
Continuous
 62
   136
370
    20
100
AcDbDimension
  2
DMBLK11
 10
51.8812638234
 20
169.9638782812
 30
0.0
 11
42.6431393261
 21
169.9638782812
 31
0.0
 70
   160
  1
\A1;<> x45°
 71
     5
 42
-1.0
  3
BSZ-Bemaßung
100
AcDbAlignedDimension
 13
49.8812638234
 23
159.36456684
 33
0.0
 14
51.8812638234
 24
161.36456684
 34
0.0
100
AcDbRotatedDimension
  0
DIMENSION
  5
174
330
1F
100
AcDbEntity
  8
Kontur
  6
Continuous
 62
   136
370
    20
100
AcDbDimension
  2
DMBLK12
 10
190.9759907733
 20
108.36456684
 30
0.0
 11
190.9759907733
 21
104.864566948
 31
0.0
 70
   160
  1
\A1;<>
 71
     5
 42
-1.0
  3
BSZ-Bemaßung
100
AcDbAlignedDimension
 13
177.8812638234
 23
101.36456684
 33
0.0
 14
160.8812638234
 24
108.36456684
 34
0.0
 50
90.0
100
AcDbRotatedDimension
  0
DIMENSION
  5
17E
330
1F
100
AcDbEntity
  8
Kontur
  6
Continuous
 62
   136
370
    20
100
AcDbDimension
  2
DMBLK13
 10
190.9759916972
 20
143.36456684
 30
0.0
 11
190.9759916972
 21
125.8645669145
 31
0.0
 70
   160
  1
\A1;<>
 71
     5
 42
-1.0
  3
BSZ-Bemaßung
100
AcDbAlignedDimension
 13
160.8812638234
 23
108.36456684
 33
0.0
 14
168.8812638234
 24
143.36456684
 34
0.0
 50
90.0
100
AcDbRotatedDimension
  0
DIMENSION
  5
188
330
1F
100
AcDbEntity
  8
Kontur
  6
Continuous
 62
   136
370
    20
100
AcDbDimension
  2
DMBLK14
 10
120.8812638234
 20
133.9667993558
 30
0.0
 11
144.881264032
 21
133.9667993558
 31
0.0
 70
   161
  1
\A1;<>
 71
     5
 42
-1.0
  3
BSZ-Bemaßung
100
AcDbAlignedDimension
 13
120.8812638234
 23
143.36456684
 33
0.0
 14
168.8812638234
 24
143.36456684
 34
0.0
  0
DIMENSION
  5
192
330
1F
100
AcDbEntity
  8
Kontur
  6
Continuous
 62
   136
370
    20
100
AcDbDimension
  2
DMBLK15
 10
120.8812638234
 20
125.6591395063
 30
0.0
 11
140.8812633763
 21
125.6591395063
 31
0.0
 70
   161
  1
\A1;<>
 71
     5
 42
-1.0
  3
BSZ-Bemaßung
100
AcDbAlignedDimension
 13
120.8812638234
 23
108.36456684
 33
0.0
 14
160.8812638234
 24
108.36456684
 34
0.0
  0
DIMENSION
  5
19C
330
1F
100
AcDbEntity
  8
Kontur
  6
Continuous
 62
   136
370
    20
100
AcDbDimension
  2
DMBLK16
 10
120.8812638234
 20
92.4315830094
 30
0.0
 11
150.3812636446
 21
92.4315830094
 31
0.0
 70
   160
  1
\A1;<>
 71
     5
 42
-1.0
  3
BSZ-Bemaßung
100
AcDbAlignedDimension
 13
179.8812638234
 23
103.36456684
 33
0.0
 14
120.8812638234
 24
108.36456684
 34
0.0
100
AcDbRotatedDimension
  0
TEXT
  5
1A6
330
1F
100
AcDbEntity
  8
0
  6
Continuous
 62
     7
100
AcDbText
 10
238.4086977417
 20
87.36456684
 30
0.0
 40
7.0
  1
Schnitt F-F
  7
SEACAD_seiso_ttf
 11
238.4086977417
 21
94.36456684
 31
0.0
100
AcDbText
 73
     3
  0
INSERT
  5
1A8
330
1F
100
AcDbEntity
  8
Kontur
100
AcDbBlockReference
  2
SE7
 10
0.0
 20
0.0
 30
0.0
  0
DIMENSION
  5
1D6
330
1F
100
AcDbEntity
  8
Kontur
  6
Continuous
 62
   136
370
    20
100
AcDbDimension
  2
DMBLK17
 10
271.3247561683
 20
126.36456684
 30
0.0
 11
271.3247561683
 21
131.3645667282
 31
0.0
 70
   161
  1
\A1;%%C <>
 71
     5
 42
-1.0
  3
BSZ-Bemaßung
100
AcDbAlignedDimension
 13
260.1018795599
 23
126.36456684
 33
0.0
 14
260.1018795599
 24
136.36456684
 34
0.0
  0
DIMENSION
  5
1E2
330
1F
100
AcDbEntity
  8
Kontur
  6
Continuous
 62
   136
370
    20
100
AcDbDimension
  2
DMBLK18
 10
241.486560144
 20
128.61456684
 30
0.0
 11
241.486560144
 21
119.6807060314
 31
0.0
 70
   161
  1
\A1;%%C <>
 71
     5
 42
-1.0
  3
BSZ-Bemaßung
100
AcDbAlignedDimension
 13
255.9768795599
 23
128.61456684
 33
0.0
 14
255.9768795599
 24
134.11456684
 34
0.0
  0
DIMENSION
  5
1ED
330
1F
100
AcDbEntity
  8
Kontur
  6
Continuous
 62
   136
370
    20
100
AcDbDimension
  2
DMBLK19
 10
271.3247561683
 20
104.61456684
 30
0.0
 11
271.3247561683
 21
108.3645667562
 31
0.0
 70
   161
  1
\A1;%%C <>
 71
     5
 42
-1.0
  3
BSZ-Bemaßung
100
AcDbAlignedDimension
 13
260.1018795599
 23
104.61456684
 33
0.0
 14
260.1018795599
 24
112.11456684
 34
0.0
  0
DIMENSION
  5
1F8
330
1F
100
AcDbEntity
  8
Kontur
  6
Continuous
 62
   136
370
    20
100
AcDbDimension
  2
DMBLK20
 10
249.9341594455
 20
106.66456684
 30
0.0
 11
249.9341594455
 21
115.1809706864
 31
0.0
 70
   161
  1
\A1;%%C <>
 71
     5
 42
-1.0
  3
BSZ-Bemaßung
100
AcDbAlignedDimension
 13
256.0768795599
 23
106.66456684
 33
0.0
 14
256.0768795599
 24
110.06456684
 34
0.0
  0
DIMENSION
  5
203
330
1F
100
AcDbEntity
  8
Kontur
  6
Continuous
 62
   136
370
    20
100
AcDbDimension
  2
DMBLK21
 10
254.1018795599
 20
168.834850963
 30
0.0
 11
257.101879586
 21
168.834850963
 31
0.0
 70
   161
  1
\A1;<>
 71
     5
 42
-1.0
  3
BSZ-Bemaßung
100
AcDbAlignedDimension
 13
254.1018795599
 23
161.36456684
 33
0.0
 14
260.1018795599
 24
161.36456684
 34
0.0
  0
DIMENSION
  5
20D
330
1F
100
AcDbEntity
  8
Kontur
  6
Continuous
 62
   136
370
    20
100
AcDbDimension
  2
DMBLK22
 10
250.0792230857
 20
158.36456684
 30
0.0
 11
250.0792230857
 21
153.3645669518
 31
0.0
 70
   161
  1
\A1;%%C <>
 71
     5
 42
-1.0
  3
BSZ-Bemaßung
100
AcDbAlignedDimension
 13
254.1018795599
 23
158.36456684
 33
0.0
 14
254.1018795599
 24
148.36456684
 34
0.0
  0
DIMENSION
  5
218
330
1F
100
AcDbEntity
  8
Kontur
  6
Continuous
 62
   136
370
    20
100
AcDbDimension
  2
DMBLK23
 10
271.2569549535
 20
150.61456684
 30
0.0
 11
271.2569549535
 21
158.115900792
 31
0.0
 70
   161
  1
\A1;%%C <>
 71
     5
 42
-1.0
  3
BSZ-Bemaßung
100
AcDbAlignedDimension
 13
260.1018795599
 23
150.61456684
 33
0.0
 14
260.1018795599
 24
156.11456684
 34
0.0
  0
LINE
  5
224
330
1F
100
AcDbEntity
  8
Standard
  6
Continuous
 62
     7
100
AcDbLine
 10
4.889582682
 20
190.5305004851
 30
0.0
 11
4.889582682
 21
5.3469997259
 31
0.0
  0
LINE
  5
226
330
1F
100
AcDbEntity
  8
Rahmen
  6
Continuous
 62
     7
100
AcDbLine
 10
95.456315134
 20
5.3469997259
 30
0.0
 11
281.8521289837
 21
5.3469997259
 31
0.0
  0
LINE
  5
227
330
1F
100
AcDbEntity
  8
Rahmen
  6
Continuous
 62
     7
100
AcDbLine
 10
95.456315134
 20
21.3469997259
 30
0.0
 11
127.456315134
 21
21.3469997259
 31
0.0
  0
LINE
  5
228
330
1F
100
AcDbEntity
  8
Rahmen
  6
Continuous
 62
     7
100
AcDbLine
 10
95.456315134
 20
37.3469997259
 30
0.0
 11
281.8521289837
 21
37.3469997259
 31
0.0
  0
LINE
  5
229
330
1F
100
AcDbEntity
  8
Rahmen
  6
Continuous
 62
     7
100
AcDbLine
 10
95.456315134
 20
21.3469997259
 30
0.0
 11
127.456315134
 21
21.3469997259
 31
0.0
  0
LINE
  5
22A
330
1F
100
AcDbEntity
  8
Rahmen
  6
Continuous
 62
     7
100
AcDbLine
 10
111.456315134
 20
5.3469997259
 30
0.0
 11
111.456315134
 21
37.3469997259
 31
0.0
  0
LINE
  5
22B
330
1F
100
AcDbEntity
  8
Rahmen
  6
Continuous
 62
     7
100
AcDbLine
 10
127.456315134
 20
5.3469997259
 30
0.0
 11
127.456315134
 21
37.3469997259
 31
0.0
  0
LINE
  5
22C
330
1F
100
AcDbEntity
  8
Rahmen
  6
Continuous
 62
     7
100
AcDbLine
 10
143.456315134
 20
5.3469997259
 30
0.0
 11
143.456315134
 21
37.3469997259
 31
0.0
  0
LINE
  5
22D
330
1F
100
AcDbEntity
  8
Rahmen
  6
Continuous
 62
     7
100
AcDbLine
 10
95.456315134
 20
29.3469997259
 30
0.0
 11
127.456315134
 21
29.3469997259
 31
0.0
  0
LINE
  5
22E
330
1F
100
AcDbEntity
  8
Rahmen
  6
Continuous
 62
     7
100
AcDbLine
 10
95.456315134
 20
13.3469997259
 30
0.0
 11
127.456315134
 21
13.3469997259
 31
0.0
  0
LINE
  5
22F
330
1F
100
AcDbEntity
  8
Rahmen
  6
Continuous
 62
     7
100
AcDbLine
 10
111.456315134
 20
25.3469997259
 30
0.0
 11
127.456315134
 21
25.3469997259
 31
0.0
  0
LINE
  5
230
330
1F
100
AcDbEntity
  8
Rahmen
  6
Continuous
 62
     7
100
AcDbLine
 10
111.456315134
 20
33.3469997259
 30
0.0
 11
127.456315134
 21
33.3469997259
 31
0.0
  0
LINE
  5
231
330
1F
100
AcDbEntity
  8
Rahmen
  6
Continuous
 62
     7
100
AcDbLine
 10
111.456315134
 20
17.3469997259
 30
0.0
 11
127.456315134
 21
17.3469997259
 31
0.0
  0
LINE
  5
232
330
1F
100
AcDbEntity
  8
Rahmen
  6
Continuous
 62
     7
100
AcDbLine
 10
95.456315134
 20
42.3469997259
 30
0.0
 11
281.8521289837
 21
42.3469997259
 31
0.0
  0
LINE
  5
233
330
1F
100
AcDbEntity
  8
Rahmen
  6
Continuous
 62
     7
100
AcDbLine
 10
105.456315134
 20
37.3469997259
 30
0.0
 11
105.456315134
 21
47.3469997259
 31
0.0
  0
LINE
  5
234
330
1F
100
AcDbEntity
  8
Rahmen
  6
Continuous
 62
     7
100
AcDbLine
 10
115.456315134
 20
37.3469997259
 30
0.0
 11
115.456315134
 21
47.3469997259
 31
0.0
  0
LINE
  5
235
330
1F
100
AcDbEntity
  8
Rahmen
  6
Continuous
 62
     7
100
AcDbLine
 10
155.456315134
 20
37.3469997259
 30
0.0
 11
155.456315134
 21
47.3469997259
 31
0.0
  0
LINE
  5
236
330
1F
100
AcDbEntity
  8
Rahmen
  6
Continuous
 62
     7
100
AcDbLine
 10
231.549622205
 20
37.3469997259
 30
0.0
 11
231.549622205
 21
47.3469997259
 31
0.0
  0
TEXT
  5
237
330
1F
100
AcDbEntity
  8
Rahmen
  6
Continuous
 62
     7
100
AcDbText
 10
98.2327787069
 20
38.6487453289
 30
0.0
 40
2.5
  1
Pos.
  7
SEACAD_seiso_ttf
 11
98.2327787069
 21
41.1487453289
 31
0.0
100
AcDbText
 73
     3
  0
TEXT
  5
238
330
1F
100
AcDbEntity
  8
Rahmen
  6
Continuous
 62
     7
100
AcDbText
 10
106.7588111923
 20
38.6326886593
 30
0.0
 40
2.5
  1
Menge
  7
SEACAD_seiso_ttf
 11
106.7588111923
 21
41.1326886593
 31
0.0
100
AcDbText
 73
     3
  0
LINE
  5
239
330
1F
100
AcDbEntity
  8
Rahmen
  6
Continuous
 62
     7
100
AcDbLine
 10
174.456315134
 20
5.3469997259
 30
0.0
 11
174.456315134
 21
37.3469997259
 31
0.0
  0
LINE
  5
23A
330
1F
100
AcDbEntity
  8
Rahmen
  6
Continuous
 62
     7
100
AcDbLine
 10
261.8521289837
 20
5.3469997259
 30
0.0
 11
261.8521289837
 21
19.3469997259
 31
0.0
  0
LINE
  5
23B
330
1F
100
AcDbEntity
  8
Rahmen
  6
Continuous
 62
     7
100
AcDbLine
 10
143.456315134
 20
31.3469997259
 30
0.0
 11
231.549622205
 21
31.3469997259
 31
0.0
  0
LINE
  5
23C
330
1F
100
AcDbEntity
  8
Rahmen
  6
Continuous
 62
     7
100
AcDbLine
 10
143.456315134
 20
25.3469997259
 30
0.0
 11
202.4911066793
 21
25.3469997259
 31
0.0
  0
LINE
  5
23D
330
1F
100
AcDbEntity
  8
Rahmen
  6
Continuous
 62
     7
100
AcDbLine
 10
127.456315134
 20
19.3469997259
 30
0.0
 11
281.8521289837
 21
19.3469997259
 31
0.0
  0
LINE
  5
23E
330
1F
100
AcDbEntity
  8
Rahmen
  6
Continuous
 62
     7
100
AcDbLine
 10
111.456315134
 20
25.3469997259
 30
0.0
 11
127.456315134
 21
25.3469997259
 31
0.0
  0
LINE
  5
23F
330
1F
100
AcDbEntity
  8
Rahmen
  6
Continuous
 62
     7
100
AcDbLine
 10
231.549622205
 20
19.3469997259
 30
0.0
 11
231.549622205
 21
37.3469997259
 31
0.0
  0
LINE
  5
240
330
1F
100
AcDbEntity
  8
Rahmen
  6
Continuous
 62
     7
100
AcDbLine
 10
202.4911066793
 20
19.3469997259
 30
0.0
 11
202.4911066793
 21
37.3469997259
 31
0.0
  0
TEXT
  5
241
330
1F
100
AcDbEntity
  8
Rahmen
  6
Continuous
 62
     7
100
AcDbText
 10
266.5584309652
 20
15.6722483051
 30
0.0
 40
2.5
  1
Blatt-Nr.
  7
SEACAD_seiso_ttf
 11
266.5584309652
 21
18.1722483051
 31
0.0
100
AcDbText
 73
     3
  0
TEXT
  5
242
330
1F
100
AcDbEntity
  8
Rahmen
  6
Continuous
 62
     7
100
AcDbText
 10
146.1799814419
 20
15.3813745889
 30
0.0
 40
2.5
  1
Allgemeintoleranzen
  7
SEACAD_seiso_ttf
 11
146.1799814419
 21
17.8813745889
 31
0.0
100
AcDbText
 73
     3
  0
TEXT
  5
243
330
1F
100
AcDbEntity
  8
Rahmen
  6
Continuous
 62
     7
100
AcDbText
 10
156.43566326
 20
11.290465498
 30
0.0
 40
2.5
  1
ISO 
  7
SEACAD_seiso_ttf
 11
156.43566326
 21
13.790465498
 31
0.0
100
AcDbText
 73
     3
  0
TEXT
  5
244
330
1F
100
AcDbEntity
  8
Rahmen
  6
Continuous
 62
     7
100
AcDbText
 10
152.68566326
 20
7.1995564071
 30
0.0
 40
2.5
  1
2768-mK
  7
SEACAD_seiso_ttf
 11
152.68566326
 21
9.6995564071
 31
0.0
100
AcDbText
 73
     3
  0
TEXT
  5
245
330
1F
100
AcDbEntity
  8
Rahmen
  6
Continuous
 62
     7
100
AcDbText
 10
128.2066344996
 20
15.2166983888
 30
0.0
 40
2.5
  1
Oberflächen
  7
SEACAD_seiso_ttf
 11
128.2066344996
 21
17.7166983888
 31
0.0
100
AcDbText
 73
     3
  0
TEXT
  5
246
330
1F
100
AcDbEntity
  8
Rahmen
  6
Continuous
 62
     7
100
AcDbText
 10
131.2748163178
 20
11.1257892979
 30
0.0
 40
2.5
  1
DIN ISO
  7
SEACAD_seiso_ttf
 11
131.2748163178
 21
13.6257892979
 31
0.0
100
AcDbText
 73
     3
  0
TEXT
  5
247
330
1F
100
AcDbEntity
  8
Rahmen
  6
Continuous
 62
     7
100
AcDbText
 10
130.7634526814
 20
7.034880207
 30
0.0
 40
2.5
  1
1302 R2
  7
SEACAD_seiso_ttf
 11
130.7634526814
 21
9.534880207
 31
0.0
100
AcDbText
 73
     3
  0
TEXT
  5
248
330
1F
100
AcDbEntity
  8
Rahmen
  6
Continuous
 62
     7
100
AcDbText
 10
204.1725310412
 20
33.1673724221
 30
0.0
 40
2.5
  1
Klasse
  7
SEACAD_seiso_ttf
 11
204.1725310412
 21
35.6673724221
 31
0.0
100
AcDbText
 73
     3
  0
TEXT
  5
249
330
1F
100
AcDbEntity
  8
Rahmen
  6
Continuous
 62
     7
100
AcDbText
 10
176.157012035
 20
33.0879604638
 30
0.0
 40
2.5
  1
Name
  7
SEACAD_seiso_ttf
 11
176.157012035
 21
35.5879604638
 31
0.0
100
AcDbText
 73
     3
  0
LINE
  5
24A
330
1F
100
AcDbEntity
  8
Rahmen
  6
Continuous
 62
     7
100
AcDbLine
 10
155.456315134
 20
19.3469997259
 30
0.0
 11
155.456315134
 21
37.3469997259
 31
0.0
  0
TEXT
  5
24B
330
1F
100
AcDbEntity
  8
Rahmen
  6
Continuous
 62
     7
100
AcDbText
 10
156.7889502509
 20
33.1532706151
 30
0.0
 40
2.5
  1
Datum
  7
SEACAD_seiso_ttf
 11
156.7889502509
 21
35.6532706151
 31
0.0
100
AcDbText
 73
     3
  0
TEXT
  5
24C
330
1F
100
AcDbEntity
  8
Rahmen
  6
Continuous
 62
     7
100
AcDbText
 10
145.5903024387
 20
27.1225488461
 30
0.0
 40
2.5
  1
Bearb.:
  7
SEACAD_seiso_ttf
 11
145.5903024387
 21
29.6225488461
 31
0.0
100
AcDbText
 73
     3
  0
TEXT
  5
24D
330
1F
100
AcDbEntity
  8
Rahmen
  6
Continuous
 62
     7
100
AcDbText
 10
144.7837188074
 20
21.1436670923
 30
0.0
 40
2.5
  1
Geprüft:
  7
SEACAD_seiso_ttf
 11
144.7837188074
 21
23.6436670923
 31
0.0
100
AcDbText
 73
     3
  0
TEXT
  5
24E
330
1F
100
AcDbEntity
  8
Rahmen
  6
Continuous
 62
     7
100
AcDbText
 10
130.1251635394
 20
33.1614637209
 30
0.0
 40
2.5
  1
Maßstab
  7
SEACAD_seiso_ttf
 11
130.1251635394
 21
35.6614637209
 31
0.0
100
AcDbText
 73
     3
  0
TEXT
  5
24F
330
1F
100
AcDbEntity
  8
Rahmen
  6
Continuous
 62
     7
100
AcDbText
 10
156.7416880163
 20
38.5828864186
 30
0.0
 40
2.5
  1
Kurzbezeichnung - Norm - Werkstoff
  7
SEACAD_seiso_ttf
 11
156.7416880163
 21
41.0828864186
 31
0.0
100
AcDbText
 73
     3
  0
TEXT
  5
250
330
1F
100
AcDbEntity
  8
Rahmen
  6
Continuous
 62
     7
100
AcDbText
 10
232.6079002765
 20
38.5828864186
 30
0.0
 40
2.5
  1
Bemerkung
  7
SEACAD_seiso_ttf
 11
232.6079002765
 21
41.0828864186
 31
0.0
100
AcDbText
 73
     3
  0
TEXT
  5
251
330
1F
100
AcDbEntity
  8
Rahmen
  6
Continuous
 62
     7
100
AcDbText
 10
116.6183003363
 20
38.6373961441
 30
0.0
 40
2.5
  1
Benennung
  7
SEACAD_seiso_ttf
 11
116.6183003363
 21
41.1373961441
 31
0.0
100
AcDbText
 73
     3
  0
TEXT
  5
252
330
1F
100
AcDbEntity
  8
Rahmen
  6
Continuous
 62
     7
100
AcDbText
 10
98.2587118682
 20
8.1559993015
 30
0.0
 40
2.5
  1
Paßmaß
  7
SEACAD_seiso_ttf
 11
98.2587118682
 21
10.6559993015
 31
0.0
100
AcDbText
 73
     3
  0
TEXT
  5
253
330
1F
100
AcDbEntity
  8
Rahmen
  6
Continuous
 62
     7
100
AcDbText
 10
115.4174969954
 20
8.2023738934
 30
0.0
 40
2.5
  1
Abmaß
  7
SEACAD_seiso_ttf
 11
115.4174969954
 21
10.7023738934
 31
0.0
100
AcDbText
 73
     3
  0
LINE
  5
254
330
1F
100
AcDbEntity
  8
Rahmen
  6
Continuous
 62
     7
100
AcDbLine
 10
95.456315134
 20
47.3469997259
 30
0.0
 11
281.8521289837
 21
47.3469997259
 31
0.0
  0
LINE
  5
255
330
1F
100
AcDbEntity
  8
Standard
  6
Continuous
 62
     7
100
AcDbLine
 10
95.456315134
 20
47.3469997259
 30
0.0
 11
95.456315134
 21
5.3469997259
 31
0.0
  0
LINE
  5
256
330
1F
100
AcDbEntity
  8
Standard
  6
Continuous
 62
     7
100
AcDbLine
 10
281.8521289837
 20
5.3469997259
 30
0.0
 11
281.8521289837
 21
190.5305004851
 31
0.0
  0
LINE
  5
257
330
1F
100
AcDbEntity
  8
Standard
  6
Continuous
 62
     7
100
AcDbLine
 10
281.8521289837
 20
190.5305004851
 30
0.0
 11
4.889582682
 21
190.5305004851
 31
0.0
  0
LINE
  5
258
330
1F
100
AcDbEntity
  8
Standard
  6
Continuous
 62
     7
100
AcDbLine
 10
281.8521289837
 20
5.3469997259
 30
0.0
 11
4.889582682
 21
5.3469997259
 31
0.0
  0
ENDSEC
  0
SECTION
  2
OBJECTS
  0
DICTIONARY
  5
C
330
0
100
AcDbDictionary
281
     1
  3
ACAD_GROUP
350
D
  3
ACAD_LAYOUT
350
1A
  3
ACAD_MLINESTYLE
350
17
  3
ACAD_PLOTSETTINGS
350
19
  3
ACAD_PLOTSTYLENAME
350
E
  0
DICTIONARY
  5
D
102
{ACAD_REACTORS
330
C
102
}
330
C
100
AcDbDictionary
281
     1
  0
DICTIONARY
  5
1A
102
{ACAD_REACTORS
330
C
102
}
330
C
100
AcDbDictionary
281
     1
  3
Layout1
350
1E
  3
Model
350
22
  0
DICTIONARY
  5
17
102
{ACAD_REACTORS
330
C
102
}
330
C
100
AcDbDictionary
281
     1
  3
Standard
350
18
  0
DICTIONARY
  5
19
102
{ACAD_REACTORS
330
C
102
}
330
C
100
AcDbDictionary
281
     1
  0
ACDBDICTIONARYWDFLT
  5
E
102
{ACAD_REACTORS
330
C
102
}
330
C
100
AcDbDictionary
281
     1
  3
Normal
350
F
100
AcDbDictionaryWithDefault
340
F
  0
LAYOUT
  5
1E
102
{ACAD_REACTORS
330
1A
102
}
330
1A
100
AcDbPlotSettings
  1

  2
none_device
  4

  6

 40
0.0
 41
0.0
 42
0.0
 43
0.0
 44
0.0
 45
0.0
 46
0.0
 47
0.0
 48
0.0
 49
0.0
140
0.0
141
0.0
142
1.0
143
1.0
 70
   688
 72
     0
 73
     0
 74
     5
  7

 75
    16
147
1.0
148
0.0
149
0.0
100
AcDbLayout
  1
Layout1
 70
     1
 71
     1
 10
0.0
 20
0.0
 11
297.0
 21
210.0
 12
0.0
 22
0.0
 32
0.0
 14
0.0
 24
0.0
 34
0.0
 15
297.0
 25
210.0
 35
0.0
146
0.0
 13
0.0
 23
0.0
 33
0.0
 16
1.0
 26
0.0
 36
0.0
 17
0.0
 27
1.0
 37
0.0
 76
     0
330
1B
  0
LAYOUT
  5
22
102
{ACAD_REACTORS
330
1A
102
}
330
1A
100
AcDbPlotSettings
  1

  2
none_device
  4

  6

 40
0.0
 41
0.0
 42
0.0
 43
0.0
 44
0.0
 45
0.0
 46
0.0
 47
0.0
 48
0.0
 49
0.0
140
0.0
141
0.0
142
1.0
143
1.0
 70
  1712
 72
     0
 73
     0
 74
     0
  7

 75
     0
147
1.0
148
0.0
149
0.0
100
AcDbLayout
  1
Model
 70
     1
 71
     0
 10
0.0
 20
0.0
 11
297.0
 21
210.0
 12
0.0
 22
0.0
 32
0.0
 14
0.0
 24
0.0
 34
0.0
 15
297.0
 25
210.0
 35
0.0
146
0.0
 13
0.0
 23
0.0
 33
0.0
 16
1.0
 26
0.0
 36
0.0
 17
0.0
 27
1.0
 37
0.0
 76
     0
330
1F
  0
MLINESTYLE
  5
18
102
{ACAD_REACTORS
330
17
102
}
330
17
100
AcDbMlineStyle
  2
Standard
 70
     0
  3

 62
   256
 51
90.0
 52
90.0
 71
     2
 49
0.5
 62
   256
  6
BYLAYER
 49
-0.5
 62
   256
  6
BYLAYER
  0
ACDBPLACEHOLDER
  5
F
102
{ACAD_REACTORS
330
E
102
}
330
E
  0
ENDSEC
  0
EOF
